<?xml version="1.0" encoding="UTF-8" standalone="no"?>
<!DOCTYPE svg PUBLIC "-//W3C//DTD SVG 1.1//EN" "http://www.w3.org/Graphics/SVG/1.1/DTD/svg11.dtd">
<svg xmlns="http://www.w3.org/2000/svg" xmlns:xlink="http://www.w3.org/1999/xlink" version="1.1">
<metadata>
Created by FontForge 20141024 at Tue Jul  7 04:57:40 2015
 By System Administrator
Typeface and data (c) 2003, Arabeyes.org. This font is distributed under the terms of GPL license.
</metadata>
<defs>
<font id="arabeyes_qr_meor" horiz-adv-x="0">
  <font-face font-family="arabeyes_qr_meor" font-weight="400" font-stretch="normal" units-per-em="2048" panose-1="2 6 6 3 5 6 5 2 2 4" ascent="1556" descent="-492" bbox="-1241.56 -1031 2319.82 2587" underline-thickness="133" underline-position="-147" unicode-range="U+000D-FEFC"/>
<missing-glyph horiz-adv-x="1229" d="M102 -362v1806h1024v-1806h-1024zM217 -248h795v1577h-795v-1577z"/>
    <glyph glyph-name="allahisolated" unicode="ﻟﻠﻪ" horiz-adv-x="1673" arabic-form="isolated" d="M1416 66q-5 -7 -32 -17q-13 -3 -25.5 -5t-24.5 -2q-81 0 -143 49q-81 63 -109 197q0 -107 -77 -194q-83 -93 -201 -93q-96 0 -164 66q-78 81 -99 261l-3 -38q-1 -11 -2 -16t-6 -16q-26 -75 -98 -99q-63 -20 -177 -20q-91 0 -146 14t-61 47q-7 28 -7 48q0 66 54 135 q30 37 100 95q52 40 155 103l93 55l68 35l-5 28l-10 58l36 80q21 46 49 85l16 -121l12 -116l24 -289q0 -41 14.5 -73.5t40.5 -56.5q51 -51 144 -51q58 0 120 50q54 44 78 113q0 86 -21 259q-9 87 -21 167q-8 57 -12 81.5t-14 76.5l43 101l40 99l44 -290l27 -218l19 -155 l7 -37q3 -21 10 -36q13 -36 32 -64q41 -60 122 -87l50 -12l53 -4q30 0 47.5 26t23.5 73q0 47 -21 125l-50 167l-30 116l-26 124l10 39q7 27 19 57l20 55l29 72q8 -60 21 -130t31 -142l50 -215q25 -117 25 -195q0 -118 -36 -214q-23 -61 -69 -116q-27 -32 -37 -35zM516 565 l-61 -31q-34 -18 -67 -38t-62 -41q-73 -51 -113 -102q148 0 227 20q51 12 89 44z"/>
    <glyph glyph-name="lamwithalefmaddaaboveisolatedd" unicode="ﻟﺂ" horiz-adv-x="1313" arabic-form="isolated" d="M1293 1069q0 -41 -28 -75l-73 -72q-21 -130 -41.5 -220.5t-39.5 -153t-36.5 -103t-31.5 -71.5q0 -3 5.5 -15.5t13 -31.5t17 -42t17 -45.5t13 -42.5t5.5 -33q0 -70 -36.5 -107.5t-111.5 -51.5l-104 -7h-148l-22 4q-34 6 -49 17.5t-16.5 30t7 44t20.5 60.5l77 6 q12 0 24 4.5t26.5 16.5t33 33t44.5 54q21 27 34 45t19.5 29.5t9 18.5t2.5 13q-28 42 -67.5 96t-84 110.5t-90.5 111t-87.5 97.5t-75 69.5t-53.5 26.5l-62 -5q-38 0 -73.5 16.5t-62.5 45.5t-43.5 70t-16.5 90q0 15 5.5 32.5t13.5 32.5t16.5 25t14.5 10q79 -1 204.5 -103 t286.5 -300q59 -73 117.5 -145t117.5 -145q21 34 41.5 93t37 130t27 148.5t10.5 148.5q0 81 21.5 159t70.5 150q22 -12 28.5 -20t9.5 -23q-10 -32 -16.5 -57.5t-4.5 -47t15 -40.5t42 -37q27 -17 27 -44zM870 176q0 -12 36 -12q34 0 43 10.5t9 31.5q0 20 -5.5 31t-11.5 11 q-7 0 -29 -15zM554 1459q-55 -46 -95.5 -66.5t-99 -31t-117 -4.5t-92.5 24.5t-106 -35.5q-10 0 -17 6t-11 23q22 36 42.5 64.5t51 41t72 -2.5t72.5 -20.5t71 -9t93 9.5t156 43l18 -5z"/>
    <glyph glyph-name="lamwithalefmaddaabovefinal" unicode="ﻠﺂ" horiz-adv-x="1535" arabic-form="final" d="M895 327q0 -5 -3 -16t-7.5 -22.5t-10 -19.5t-11.5 -5q-11 51 -39.5 111.5t-68 124t-87 125.5t-96 115t-95.5 94t-86 62q-7 0 -11 -4.5t-10 -10t-16.5 -10t-29.5 -4.5q-40 0 -70 18t-50 49.5t-30 73.5t-10 89q0 30 2.5 50t11 32t23.5 16.5t40 4.5q19 0 56.5 -23.5 t85.5 -65t103 -98t110.5 -122.5t107 -138.5t92.5 -145.5t67.5 -144.5t31.5 -135.5zM1564 0h-160q-126 36 -142 77q-31 84 -52.5 146t-35.5 106.5t-23 74t-14.5 48.5t-9.5 30t-9 19q-29 -63 -60.5 -132t-62 -130t-57.5 -108t-47 -66q-14 -17 -43 -36.5t-67.5 -40t-84 -41.5 t-92 -40t-92 -36t-83.5 -30q-20 3 -31.5 5.5t-17.5 5.5t-8 5.5t-3 5.5q0 13 14 24.5t40 25t62 31t80 43.5q93 55 171 115.5t138 132t100 157.5t57 193q5 38 8.5 67t6.5 56.5t5 57.5t4 68.5t3.5 89.5t3.5 122q0 29 4.5 61t14 61.5t24 53.5t34.5 37q19 -41 31 -76.5t12 -85.5 v-203q0 -110 4.5 -189t16.5 -146t33.5 -132.5t56.5 -147.5q12 -30 21 -48t16 -28.5t80 -37.5h154v-165zM558 1574q-55 -46 -95.5 -66.5t-99 -31t-117 -4.5t-92.5 24.5t-106 -35.5q-10 0 -17 6t-11 23q22 36 42.5 64.5t51 41t72 -2.5t72.5 -20.5t71 -9t93 9.5t156 43l18 -5z "/>
    <glyph glyph-name="lamwithalefhamzaaboveisolatedd" unicode="ﻟﺄ" horiz-adv-x="1197" arabic-form="isolated" d="M1177 1069q0 -41 -28 -75l-73 -72q-21 -130 -41.5 -220.5t-39.5 -153t-36.5 -103t-31.5 -71.5q0 -3 5.5 -15.5t13 -31.5t17 -42t17 -45.5t13 -42.5t5.5 -33q0 -70 -36.5 -107.5t-111.5 -51.5l-104 -7h-148l-22 4q-34 6 -49 17.5t-16.5 30t7 44t20.5 60.5l77 6 q12 0 24 4.5t26.5 16.5t33 33t44.5 54q21 27 34 45t19.5 29.5t9 18.5t2.5 13q-28 42 -67.5 96t-84 110.5t-90.5 111t-87.5 97.5t-75 69.5t-53.5 26.5l-62 -5q-38 0 -73.5 16.5t-62.5 45.5t-43.5 70t-16.5 90q0 15 5.5 32.5t13.5 32.5t16.5 25t14.5 10q79 -1 204.5 -103 t286.5 -300q59 -73 117.5 -145t117.5 -145q21 34 41.5 93t37 130t27 148.5t10.5 148.5q0 81 21.5 159t70.5 150q22 -12 28.5 -20t9.5 -23q-10 -32 -16.5 -57.5t-4.5 -47t15 -40.5t42 -37q27 -17 27 -44zM754 176q0 -12 36 -12q34 0 43 10.5t9 31.5q0 20 -5.5 31t-11.5 11 q-7 0 -29 -15zM334 1512q-8 -35 -15 -48t-19 -17l-276 -79q4 18 9.5 30.5t16.5 22t28.5 18t46.5 18.5q-66 31 -66 78q0 21 17 44q85 118 163 118q52 0 52 -56q0 -24 -29 -68q-51 33 -81 33q-28 0 -67 -33q79 -75 142 -75q-4 0 78 14z"/>
    <glyph glyph-name="lamwithalefhamzaabovefinal" unicode="ﻠﺄ" horiz-adv-x="1563" arabic-form="final" d="M927 327q0 -5 -3 -16t-7.5 -22.5t-10 -19.5t-11.5 -5q-11 51 -39.5 111.5t-68 124t-87 125.5t-96 115t-95.5 94t-86 62q-7 0 -11 -4.5t-10 -10t-16.5 -10t-29.5 -4.5q-40 0 -70 18t-50 49.5t-30 73.5t-10 89q0 30 2.5 50t11 32t23.5 16.5t40 4.5q19 0 56.5 -23.5 t85.5 -65t103 -98t110.5 -122.5t107 -138.5t92.5 -145.5t67.5 -144.5t31.5 -135.5zM1596 0h-160q-126 36 -142 77q-31 84 -52.5 146t-35.5 106.5t-23 74t-14.5 48.5t-9.5 30t-9 19q-29 -63 -60.5 -132t-62 -130t-57.5 -108t-47 -66q-14 -17 -43 -36.5t-67.5 -40t-84 -41.5 t-92 -40t-92 -36t-83.5 -30q-20 3 -31.5 5.5t-17.5 5.5t-8 5.5t-3 5.5q0 13 14 24.5t40 25t62 31t80 43.5q93 55 171 115.5t138 132t100 157.5t57 193q5 38 8.5 67t6.5 56.5t5 57.5t4 68.5t3.5 89.5t3.5 122q0 29 4.5 61t14 61.5t24 53.5t34.5 37q19 -41 31 -76.5t12 -85.5 v-203q0 -110 4.5 -189t16.5 -146t33.5 -132.5t56.5 -147.5q12 -30 21 -48t16 -28.5t80 -37.5h154v-165zM335 1469q-8 -35 -15 -48t-19 -17l-276 -79q4 18 9.5 30.5t16.5 22t28.5 18t46.5 18.5q-66 31 -66 78q0 21 17 44q85 118 163 118q52 0 52 -56q0 -24 -29 -68 q-51 33 -81 33q-28 0 -67 -33q79 -75 142 -75q-4 0 78 14z"/>
    <glyph glyph-name="lamwithalefhamzabelowisolated" unicode="ﻟﺈ" horiz-adv-x="1125" arabic-form="isolated" d="M1105 1069q0 -41 -28 -75l-73 -72q-21 -130 -41.5 -220.5t-39.5 -153t-36.5 -103t-31.5 -71.5q0 -3 5.5 -15.5t13 -31.5t17 -42t17 -45.5t13 -42.5t5.5 -33q0 -70 -36.5 -107.5t-111.5 -51.5l-104 -7h-148l-22 4q-34 6 -49 17.5t-16.5 30t7 44t20.5 60.5l77 6 q12 0 24 4.5t26.5 16.5t33 33t44.5 54q21 27 34 45t19.5 29.5t9 18.5t2.5 13q-28 42 -67.5 96t-84 110.5t-90.5 111t-87.5 97.5t-75 69.5t-53.5 26.5l-62 -5q-38 0 -73.5 16.5t-62.5 45.5t-43.5 70t-16.5 90q0 15 5.5 32.5t13.5 32.5t16.5 25t14.5 10q79 -1 204.5 -103 t286.5 -300q59 -73 117.5 -145t117.5 -145q21 34 41.5 93t37 130t27 148.5t10.5 148.5q0 81 21.5 159t70.5 150q22 -12 28.5 -20t9.5 -23q-10 -32 -16.5 -57.5t-4.5 -47t15 -40.5t42 -37q27 -17 27 -44zM682 176q0 -12 36 -12q34 0 43 10.5t9 31.5q0 20 -5.5 31t-11.5 11 q-7 0 -29 -15zM617 -220q-8 -35 -15 -48t-19 -17l-276 -79q4 18 9.5 30.5t16.5 22t28.5 18t46.5 18.5q-66 31 -66 78q0 21 17 44q85 118 163 118q52 0 52 -56q0 -24 -29 -68q-51 33 -81 33q-28 0 -67 -33q79 -75 142 -75q-4 0 78 14z"/>
    <glyph glyph-name="lamwithalefhamzabelowfinal" unicode="ﻠﺈ" horiz-adv-x="1389" arabic-form="final" d="M751 327q0 -5 -3 -16t-7.5 -22.5t-10 -19.5t-11.5 -5q-11 51 -39.5 111.5t-68 124t-87 125.5t-96 115t-95.5 94t-86 62q-7 0 -11 -4.5t-10 -10t-16.5 -10t-29.5 -4.5q-40 0 -70 18t-50 49.5t-30 73.5t-10 89q0 30 2.5 50t11 32t23.5 16.5t40 4.5q19 0 56.5 -23.5 t85.5 -65t103 -98t110.5 -122.5t107 -138.5t92.5 -145.5t67.5 -144.5t31.5 -135.5zM1420 0h-160q-126 36 -142 77q-31 84 -52.5 146t-35.5 106.5t-23 74t-14.5 48.5t-9.5 30t-9 19q-29 -63 -60.5 -132t-62 -130t-57.5 -108t-47 -66q-14 -17 -43 -36.5t-67.5 -40t-84 -41.5 t-92 -40t-92 -36t-83.5 -30q-20 3 -31.5 5.5t-17.5 5.5t-8 5.5t-3 5.5q0 13 14 24.5t40 25t62 31t80 43.5q93 55 171 115.5t138 132t100 157.5t57 193q5 38 8.5 67t6.5 56.5t5 57.5t4 68.5t3.5 89.5t3.5 122q0 29 4.5 61t14 61.5t24 53.5t34.5 37q19 -41 31 -76.5t12 -85.5 v-203q0 -110 4.5 -189t16.5 -146t33.5 -132.5t56.5 -147.5q12 -30 21 -48t16 -28.5t80 -37.5h154v-165zM648 -314q-8 -35 -15 -48t-19 -17l-276 -79q4 18 9.5 30.5t16.5 22t28.5 18t46.5 18.5q-66 31 -66 78q0 21 17 44q85 118 163 118q52 0 52 -56q0 -24 -29 -68 q-51 33 -81 33q-28 0 -67 -33q79 -75 142 -75q-4 0 78 14z"/>
    <glyph glyph-name="lamwithalefisolated" unicode="ﻟﺎ" horiz-adv-x="1125" arabic-form="isolated" d="M1105 1069q0 -41 -28 -75l-73 -72q-21 -130 -41.5 -220.5t-39.5 -153t-36.5 -103t-31.5 -71.5q0 -3 5.5 -15.5t13 -31.5t17 -42t17 -45.5t13 -42.5t5.5 -33q0 -70 -36.5 -107.5t-111.5 -51.5l-104 -7h-148l-22 4q-34 6 -49 17.5t-16.5 30t7 44t20.5 60.5l77 6 q12 0 24 4.5t26.5 16.5t33 33t44.5 54q21 27 34 45t19.5 29.5t9 18.5t2.5 13q-28 42 -67.5 96t-84 110.5t-90.5 111t-87.5 97.5t-75 69.5t-53.5 26.5l-62 -5q-38 0 -73.5 16.5t-62.5 45.5t-43.5 70t-16.5 90q0 15 5.5 32.5t13.5 32.5t16.5 25t14.5 10q79 -1 204.5 -103 t286.5 -300q59 -73 117.5 -145t117.5 -145q21 34 41.5 93t37 130t27 148.5t10.5 148.5q0 81 21.5 159t70.5 150q22 -12 28.5 -20t9.5 -23q-10 -32 -16.5 -57.5t-4.5 -47t15 -40.5t42 -37q27 -17 27 -44zM682 176q0 -12 36 -12q34 0 43 10.5t9 31.5q0 20 -5.5 31t-11.5 11 q-7 0 -29 -15z"/>
    <glyph glyph-name="lamwithaleffinal" unicode="ﻠﺎ" horiz-adv-x="1443" arabic-form="final" d="M821 327q0 -5 -3 -16t-7.5 -22.5t-10 -19.5t-11.5 -5q-11 51 -39.5 111.5t-68 124t-87 125.5t-96 115t-95.5 94t-86 62q-7 0 -11 -4.5t-10 -10t-16.5 -10t-29.5 -4.5q-40 0 -70 18t-50 49.5t-30 73.5t-10 89q0 30 2.5 50t11 32t23.5 16.5t40 4.5q19 0 56.5 -23.5 t85.5 -65t103 -98t110.5 -122.5t107 -138.5t92.5 -145.5t67.5 -144.5t31.5 -135.5zM1490 0h-160q-126 36 -142 77q-31 84 -52.5 146t-35.5 106.5t-23 74t-14.5 48.5t-9.5 30t-9 19q-29 -63 -60.5 -132t-62 -130t-57.5 -108t-47 -66q-14 -17 -43 -36.5t-67.5 -40t-84 -41.5 t-92 -40t-92 -36t-83.5 -30q-20 3 -31.5 5.5t-17.5 5.5t-8 5.5t-3 5.5q0 13 14 24.5t40 25t62 31t80 43.5q93 55 171 115.5t138 132t100 157.5t57 193q5 38 8.5 67t6.5 56.5t5 57.5t4 68.5t3.5 89.5t3.5 122q0 29 4.5 61t14 61.5t24 53.5t34.5 37q19 -41 31 -76.5t12 -85.5 v-203q0 -110 4.5 -189t16.5 -146t33.5 -132.5t56.5 -147.5q12 -30 21 -48t16 -28.5t80 -37.5h154v-165z"/>
    <glyph glyph-name="uniFC6D" unicode="ﻟﭑ" horiz-adv-x="1208" d="M1153 1069q0 -41 -28 -75l-73 -72q-21 -130 -41.5 -220.5t-39.5 -153t-36.5 -103t-31.5 -71.5q0 -3 5.5 -15.5t13 -31.5t17 -42t17 -45.5t13 -42.5t5.5 -33q0 -70 -36.5 -107.5t-111.5 -51.5l-104 -7h-148l-22 4q-34 6 -49 17.5t-16.5 30t7 44t20.5 60.5l77 6 q12 0 24 4.5t26.5 16.5t33 33t44.5 54q21 27 34 45t19.5 29.5t9 18.5t2.5 13q-28 42 -67.5 96t-84 110.5t-90.5 111t-87.5 97.5t-75 69.5t-53.5 26.5l-62 -5q-38 0 -73.5 16.5t-62.5 45.5t-43.5 70t-16.5 90q0 15 5.5 32.5t13.5 32.5t16.5 25t14.5 10q79 -1 204.5 -103 t286.5 -300q59 -73 117.5 -145t117.5 -145q21 34 41.5 93t37 130t27 148.5t10.5 148.5q0 81 21.5 159t70.5 150q22 -12 28.5 -20t9.5 -23q-10 -32 -16.5 -57.5t-4.5 -47t15 -40.5t42 -37q27 -17 27 -44zM730 176q0 -12 36 -12q34 0 43 10.5t9 31.5q0 20 -5.5 31t-11.5 11 q-7 0 -29 -15zM162 1495q-38 -60 -83 -56t-92 -65l9 -16q71 39 97 27t65 -14q55 3 97.5 25t62.5 58l5 38q-8 64 -46 73q-77 -10 -115 -70zM255 1462q-49 -34 -70.5 -31t7.5 36.5t71 45.5q30 -20 -8 -51z"/>
    <glyph glyph-name="uniFC94" unicode="ﻠﭑ" horiz-adv-x="1325" d="M760 327q0 -5 -3 -16t-7.5 -22.5t-10 -19.5t-11.5 -5q-11 51 -39.5 111.5t-68 124t-87 125.5t-96 115t-95.5 94t-86 62q-7 0 -11 -4.5t-10 -10t-16.5 -10t-29.5 -4.5q-40 0 -70 18t-50 49.5t-30 73.5t-10 89q0 30 2.5 50t11 32t23.5 16.5t40 4.5q19 0 56.5 -23.5 t85.5 -65t103 -98t110.5 -122.5t107 -138.5t92.5 -145.5t67.5 -144.5t31.5 -135.5zM1429 0h-160q-126 36 -142 77q-31 84 -52.5 146t-35.5 106.5t-23 74t-14.5 48.5t-9.5 30t-9 19q-29 -63 -60.5 -132t-62 -130t-57.5 -108t-47 -66q-14 -17 -43 -36.5t-67.5 -40t-84 -41.5 t-92 -40t-92 -36t-83.5 -30q-20 3 -31.5 5.5t-17.5 5.5t-8 5.5t-3 5.5q0 13 14 24.5t40 25t62 31t80 43.5q93 55 171 115.5t138 132t100 157.5t57 193q5 38 8.5 67t6.5 56.5t5 57.5t4 68.5t3.5 89.5t3.5 122q0 29 4.5 61t14 61.5t24 53.5t34.5 37q19 -41 31 -76.5t12 -85.5 v-203q0 -110 4.5 -189t16.5 -146t33.5 -132.5t56.5 -147.5q12 -30 21 -48t16 -28.5t80 -37.5h154v-165zM125 1525q-38 -60 -83 -56t-92 -65l9 -16q71 39 97 27t65 -14q55 3 97.5 25t62.5 58l5 38q-8 64 -46 73q-77 -10 -115 -70zM218 1492q-49 -34 -70.5 -31t7.5 36.5 t71 45.5q30 -20 -8 -51z"/>
    <glyph glyph-name="lam_hamza_arabicalef.zz04" unicode="لءا" horiz-adv-x="1125" d="M1105 1069q0 -41 -28 -75l-73 -72q-21 -130 -41.5 -220.5t-39.5 -153t-36.5 -103t-31.5 -71.5q0 -3 5.5 -15.5t13 -31.5t17 -42t17 -45.5t13 -42.5t5.5 -33q0 -70 -36.5 -107.5t-111.5 -51.5l-104 -7h-148l-22 4q-34 6 -49 17.5t-16.5 30t7 44t20.5 60.5l77 6 q12 0 24 4.5t26.5 16.5t33 33t44.5 54q21 27 34 45t19.5 29.5t9 18.5t2.5 13q-28 42 -67.5 96t-84 110.5t-90.5 111t-87.5 97.5t-75 69.5t-53.5 26.5l-62 -5q-38 0 -73.5 16.5t-62.5 45.5t-43.5 70t-16.5 90q0 15 5.5 32.5t13.5 32.5t16.5 25t14.5 10q79 -1 204.5 -103 t286.5 -300q59 -73 117.5 -145t117.5 -145q21 34 41.5 93t37 130t27 148.5t10.5 148.5q0 81 21.5 159t70.5 150q22 -12 28.5 -20t9.5 -23q-10 -32 -16.5 -57.5t-4.5 -47t15 -40.5t42 -37q27 -17 27 -44zM682 176q0 -12 36 -12q34 0 43 10.5t9 31.5q0 20 -5.5 31t-11.5 11 q-7 0 -29 -15zM656 1303q-8 -35 -15 -48t-19 -17l-276 -79q4 18 9.5 30.5t16.5 22t28.5 18t46.5 18.5q-66 31 -66 78q0 21 17 44q85 118 163 118q52 0 52 -56q0 -24 -29 -68q-51 33 -81 33q-28 0 -67 -33q79 -75 142 -75q-4 0 78 14z"/>
    <glyph glyph-name="lamfinal_hamza_arabicalef.zz04" unicode="ﻞءا" horiz-adv-x="1399" d="M751 327q0 -5 -3 -16t-7.5 -22.5t-10 -19.5t-11.5 -5q-11 51 -39.5 111.5t-68 124t-87 125.5t-96 115t-95.5 94t-86 62q-7 0 -11 -4.5t-10 -10t-16.5 -10t-29.5 -4.5q-40 0 -70 18t-50 49.5t-30 73.5t-10 89q0 30 2.5 50t11 32t23.5 16.5t40 4.5q19 0 56.5 -23.5 t85.5 -65t103 -98t110.5 -122.5t107 -138.5t92.5 -145.5t67.5 -144.5t31.5 -135.5zM1420 0h-160q-126 36 -142 77q-31 84 -52.5 146t-35.5 106.5t-23 74t-14.5 48.5t-9.5 30t-9 19q-29 -63 -60.5 -132t-62 -130t-57.5 -108t-47 -66q-14 -17 -43 -36.5t-67.5 -40t-84 -41.5 t-92 -40t-92 -36t-83.5 -30q-20 3 -31.5 5.5t-17.5 5.5t-8 5.5t-3 5.5q0 13 14 24.5t40 25t62 31t80 43.5q93 55 171 115.5t138 132t100 157.5t57 193q5 38 8.5 67t6.5 56.5t5 57.5t4 68.5t3.5 89.5t3.5 122q0 29 4.5 61t14 61.5t24 53.5t34.5 37q19 -41 31 -76.5t12 -85.5 v-203q0 -110 4.5 -189t16.5 -146t33.5 -132.5t56.5 -147.5q12 -30 21 -48t16 -28.5t80 -37.5h154v-165zM645 1295q-8 -35 -15 -48t-19 -17l-276 -79q4 18 9.5 30.5t16.5 22t28.5 18t46.5 18.5q-66 31 -66 78q0 21 17 44q85 118 163 118q52 0 52 -56q0 -24 -29 -68 q-51 33 -81 33q-28 0 -67 -33q79 -75 142 -75q-4 0 78 14z"/>
    <glyph glyph-name="alefmaksura.init" unicode="ى" horiz-adv-x="424" d="M0 0v166h222q56 13 76 29t20 39q0 24 -36 75l-82 104q4 40 11 76.5t13.5 65t11.5 46t6 19.5q48 -47 79 -92.5t49.5 -89.5t26 -86t7.5 -82q0 -85 -36.5 -144t-94.5 -96q-14 -10 -31 -16.5t-46 -11.5z"/>
    <glyph glyph-name="alefmaksura.medi" unicode="ى" horiz-adv-x="651" d="M658 0v165h-121q-61 11 -105 44t-77 102q-26 -28 -49.5 -54t-53 -46.5t-68.5 -32.5t-96 -13h-96l-1 -165h97q32 3 58 7.5t53 13.5t57.5 23.5t72.5 37.5q11 -11 30.5 -25t46.5 -27t61 -21.5t70 -8.5h121z"/>
    <glyph glyph-name="uniFB50" unicode="ٱ" horiz-adv-x="478" arabic-form="isolated" d="M214 1034l1 86q0 37 -4.5 65.5t-18.5 28.5q-1 0 -1.5 -0.5t-2.5 -0.5q-14 -11 -25 -30t-21 -41t-19 -44t-19 -38q8 -172 10.5 -322t2.5 -295v-435q6 1 13 11t15 25t16.5 33t16.5 36q9 46 16 88t12 84q8 66 10.5 126t2.5 118q0 94 -4 184t-4 189q0 63 3 132zM205 1538 q-38 -60 -83 -56t-92 -65l9 -16q71 39 97 27t65 -14q55 3 97.5 25t62.5 58l5 38q-8 64 -46 73q-77 -10 -115 -70zM298 1505q-49 -34 -70.5 -31t7.5 36.5t71 45.5q30 -20 -8 -51z"/>
    <glyph glyph-name="uniFB51" unicode="ٱ" horiz-adv-x="422" arabic-form="final" d="M440 166l1 -167q-173 2 -200 9.5t-44.5 20.5t-29 31.5t-22.5 41.5q-12 31 -18 51q-2 9 -4 34t-3 67q-1 80 -3 206t-3 206q-1 43 -1.5 80t-1.5 69q-1 34 -1.5 62.5t-2.5 53.5q-2 49 -5.5 85.5t-8.5 68.5l85 124q18 -10 25 -34t7 -44q0 -15 -1 -16q4 -162 5.5 -282 t1.5 -198q0 -97 -1 -168.5t-1 -122.5t3 -84.5t10 -53.5t19 -28.5t31 -9.5zM190 1522q-38 -60 -83 -56t-92 -65l9 -16q71 39 97 27t65 -14q55 3 97.5 25t62.5 58l5 38q-8 64 -46 73q-77 -10 -115 -70zM283 1489q-49 -34 -70.5 -31t7.5 36.5t71 45.5q30 -20 -8 -51z"/>
    <glyph glyph-name="hamzaisolated" unicode="ء" horiz-adv-x="663" arabic-form="isolated" d="M420 405q-22 33 -45 47t-47 14q-33 0 -66 -21.5t-64 -52.5t-58.5 -65t-48.5 -58q-24 -29 -24 -50q0 -17 8.5 -30.5t21.5 -26t28.5 -25t29.5 -26.5q4 -7 4 -19t-5 -23t-11.5 -22t-11.5 -22t-5 -24q0 -8 1 -9q18 0 33 7.5t29.5 19t30 23.5t33.5 21q23 11 49.5 15t54 6.5 t55.5 5t53 9t46.5 20.5t36.5 39l2 3q5 8 10 17t5 17q0 13 -16 17q-5 1 -9 1.5t-8 0.5h-16q-42 0 -85.5 -7.5t-85.5 -7.5q-39 0 -74 12.5t-62 47.5q-8 8 -8 17q0 7 5 13t12 11.5t14.5 11t13.5 11.5q14 4 29 8q12 0 22 -4.5t19.5 -10.5t19.5 -12t21 -8q21 20 39 48t24 61z"/>
    <glyph glyph-name="alefwithmaddaaboveisolated" unicode="آ" horiz-adv-x="781" arabic-form="isolated" d="M410 1120l-9 97q-15 -3 -15.5 -3.5t-2.5 -0.5q-14 -11 -25 -30t-21 -41t-19 -44t-19 -38q8 -172 10.5 -322t2.5 -295v-435q22 1 39.5 40t26.5 71.5t15 71t13.5 159.5t7.5 179q0 94 -4 591zM645 1388q-55 -46 -95.5 -66.5t-99 -31t-117 -4.5t-92.5 24.5t-106 -35.5 q-10 0 -17 6t-11 23q22 36 42.5 64.5t51 41t72 -2.5t72.5 -20.5t71 -9t93 9.5t156 43l18 -5z"/>
    <glyph glyph-name="alefwithmaddaabovefinal" unicode="آ" horiz-adv-x="571" arabic-form="final" d="M623 1413q-55 -46 -95.5 -66.5t-99 -31t-117 -4.5t-92.5 24.5t-106 -35.5q-10 0 -17 6t-11 23q22 36 42.5 64.5t51 41t72 -2.5t72.5 -20.5t71 -9t93 9.5t156 43l18 -5zM595 166l1 -167l-121 2q-164 14 -191 120q-20 105 -21 691q-3 168 -6.5 204.5t-8.5 68.5l85 124 q18 -10 25 -34t6 -60q4 -162 5.5 -282t1.5 -198q0 -97 -1 -168.5t-1 -122.5t3 -84.5t15 -63t90 -31.5z"/>
    <glyph glyph-name="alefwithhamzaaboveisolated" unicode="أ" horiz-adv-x="509" arabic-form="isolated" d="M306 1120l-9 97q-15 -3 -15.5 -3.5t-2.5 -0.5q-14 -11 -25 -30t-21 -41t-19 -44t-19 -38q8 -172 10.5 -322t2.5 -295v-435q22 1 39.5 40t26.5 71.5t15 71t13.5 159.5t7.5 179q0 94 -4 591zM413 1444q-8 -35 -15 -48t-19 -17l-276 -79q4 18 9.5 30.5t16.5 22t28.5 18 t46.5 18.5q-66 31 -66 78q0 21 17 44q85 118 163 118q52 0 52 -56q0 -24 -29 -68q-51 33 -81 33q-28 0 -67 -33q79 -75 142 -75q-4 0 78 14z"/>
    <glyph glyph-name="alefwithhamzaabovefinal" unicode="أ" horiz-adv-x="489" arabic-form="final" d="M374 1415q-8 -35 -15 -48t-19 -17l-276 -79q4 18 9.5 30.5t16.5 22t28.5 18t46.5 18.5q-66 31 -66 78q0 21 17 44q85 118 163 118q52 0 52 -56q0 -24 -29 -68q-51 33 -81 33q-28 0 -67 -33q79 -75 142 -75q-4 0 78 14zM508 166l1 -167l-121 2q-164 14 -191 120 q-20 105 -21 691q-3 168 -6.5 204.5t-8.5 68.5l85 124q18 -10 25 -34t6 -60q4 -162 5.5 -282t1.5 -198q0 -97 -1 -168.5t-1 -122.5t3 -84.5t15 -63t90 -31.5z"/>
    <glyph glyph-name="wawwithhamzaaboveisolated" unicode="ؤ" horiz-adv-x="872" arabic-form="isolated" d="M732 715q-8 -35 -15 -48t-19 -17l-276 -79q4 18 9.5 30.5t16.5 22t28.5 18t46.5 18.5q-66 31 -66 78q0 21 17 44q85 118 163 118q52 0 52 -56q0 -24 -29 -68q-51 33 -81 33q-28 0 -67 -33q79 -75 142 -75q-4 0 78 14zM796 240q0 -66 -15.5 -141t-44.5 -149.5 t-70.5 -142.5t-94 -120.5t-114.5 -83.5t-131 -31q-34 0 -108.5 10t-195.5 34q-17 2 -22 26l11 11q77 7 133 12t99 10.5t76 13.5t63 21t60 33t68 50q60 48 111 122.5t93 173.5q1 13 1 22q0 10 -1.5 20t-5.5 22l-10 30q-13 -38 -24 -62.5t-23 -39t-27 -20t-36 -5.5 q-61 0 -93 30.5t-41.5 77t0 102t32 105.5t54.5 87t67 47q31 0 64.5 -26.5t61.5 -66t45.5 -86t17.5 -86.5zM634 263q-9 24 -23 30.5t-42 6.5l-18 -37q0 -11 26 -22l25 -6q8 0 16 8z"/>
    <glyph glyph-name="wawwithhamzaabovefinal" unicode="ؤ" horiz-adv-x="875" arabic-form="final" d="M700 644q-8 -35 -15 -48t-19 -17l-276 -79q4 18 9.5 30.5t16.5 22t28.5 18t46.5 18.5q-66 31 -66 78q0 21 17 44q85 118 163 118q52 0 52 -56q0 -24 -29 -68q-51 33 -81 33q-28 0 -67 -33q79 -75 142 -75q-4 0 78 14zM616 188q-5 12 -9.5 21.5t-11 14.5t-16.5 5.5 t-26 -5.5l-18 -36q0 -5 5 -13t18 -13q22 -5 30 -1t12 8zM752 0q-8 -37 -18.5 -76.5t-24.5 -82.5q-43 -73 -85 -133t-88.5 -102.5t-100 -65.5t-118.5 -23q-33 0 -105.5 10t-190.5 33q-16 2 -21 25l11 11q74 7 130 13t98.5 13.5t75 16.5t61.5 22t57 30t62 41q59 41 105.5 110 t85.5 158q-29 -3 -50.5 -3.5t-37.5 0t-26.5 2t-18.5 1.5q-26 0 -49 10t-39.5 27.5t-26 41t-9.5 50.5q4 46 18.5 92t35.5 86t48.5 71t58.5 46q30 0 62.5 -25.5t59.5 -64.5t44 -84t17 -84h117v-166h-138z"/>
    <glyph glyph-name="alefwithhamzabelowisolated" unicode="إ" horiz-adv-x="481" arabic-form="isolated" d="M284 1120l-9 97q-15 -3 -15.5 -3.5t-2.5 -0.5q-14 -11 -25 -30t-21 -41t-19 -44t-19 -38q8 -172 10.5 -322t2.5 -295v-435q22 1 39.5 40t26.5 71.5t15 71t13.5 159.5t7.5 179q0 94 -4 591zM389 -185q-8 -35 -15 -48t-19 -17l-276 -79q4 18 9.5 30.5t16.5 22t28.5 18 t46.5 18.5q-66 31 -66 78q0 21 17 44q85 118 163 118q52 0 52 -56q0 -24 -29 -68q-51 33 -81 33q-28 0 -67 -33q79 -75 142 -75q-4 0 78 14z"/>
    <glyph glyph-name="alefwithhamzabelowfinal" unicode="إ" horiz-adv-x="492" arabic-form="final" d="M511 166l1 -167l-121 2q-164 14 -191 120q-20 105 -21 691q-3 168 -6.5 204.5t-8.5 68.5l85 124q18 -10 25 -34t6 -60q4 -162 5.5 -282t1.5 -198q0 -97 -1 -168.5t-1 -122.5t3 -84.5t15 -63t90 -31.5zM387 -256q-8 -35 -15 -48t-19 -17l-276 -79q4 18 9.5 30.5t16.5 22 t28.5 18t46.5 18.5q-66 31 -66 78q0 21 17 44q85 118 163 118q52 0 52 -56q0 -24 -29 -68q-51 33 -81 33q-28 0 -67 -33q79 -75 142 -75q-4 0 78 14z"/>
    <glyph glyph-name="yehwithhamzaaboveisolated" unicode="ئ" horiz-adv-x="1286" arabic-form="isolated" d="M399 615q-8 -35 -15 -48t-19 -17l-276 -79q4 18 9.5 30.5t16.5 22t28.5 18t46.5 18.5q-66 31 -66 78q0 21 17 44q85 118 163 118q52 0 52 -56q0 -24 -29 -68q-51 33 -81 33q-28 0 -67 -33q79 -75 142 -75q-4 0 78 14zM1216 614q0 -80 -15.5 -116.5t-32.5 -36.5 q-3 0 -8.5 6.5t-13.5 14.5t-17.5 16t-18.5 11q-12 19 -41 11t-66 -33t-76 -62t-72 -77t-54 -77.5t-21 -63.5q0 -24 16 -37l231 -33q42 -15 67 -29t38.5 -27.5t17.5 -27t4 -29.5q0 -66 -33.5 -127t-88.5 -114.5t-126 -97t-146.5 -75t-150 -48.5t-135.5 -17q-91 0 -164.5 31 t-125 85t-79 127.5t-27.5 158.5q0 6 6 36t16 72t23 90t27 88t29 67t28 28q14 -1 16 -7t-3 -19.5t-15 -35t-19.5 -53t-16.5 -75t-7 -99.5q0 -58 20.5 -113.5t65 -98.5t114.5 -69.5t169 -26.5q38 0 87.5 9t103 25.5t106.5 39t98.5 49t79 56.5t48.5 61q-24 8 -58 13.5t-72 10.5 t-75.5 12t-69 17.5t-52.5 27t-26 40.5q-1 62 16.5 130.5t47.5 136t71 129.5t88.5 112t99 84t103.5 45q45 -21 67 -49t22 -66z"/>
    <glyph glyph-name="yehwithhamzaabovefinal" unicode="ئ" horiz-adv-x="1081" arabic-form="final" d="M1078 -274q-28 -56 -72.5 -103.5t-100.5 -86t-120.5 -68t-132.5 -49.5t-137 -30t-133 -10q-47 0 -95 14.5t-89.5 41.5t-74 65.5t-48.5 86.5q-20 62 -20 151q0 30 5.5 67t16 75t25 75.5t32 68t37.5 52t41 28.5l3 -13q0 -10 -8 -24.5t-18.5 -34.5t-21 -45.5t-16.5 -57.5 l-14 -72q-2 -64 8 -110.5t31 -79.5t52 -56t72 -41q54 -22 117.5 -29t131 -0.5t135 26t129.5 50.5t115.5 73.5t93.5 93.5q4 10 -14.5 18t-50 16t-72.5 16.5t-81.5 19t-77 23t-59.5 29.5q0 24 51 134q27 19 69 41t88.5 41t91.5 31.5t129 12.5v-166q-17 0 -78.5 -6t-113.5 -19 q42 -14 82 -28.5t82 -28.5q20 -30 34 -82q-2 -47 -9 -68.5t-15 -41.5zM396 344q-8 -35 -15 -48t-19 -17l-276 -79q4 18 9.5 30.5t16.5 22t28.5 18t46.5 18.5q-66 31 -66 78q0 21 17 44q85 118 163 118q52 0 52 -56q0 -24 -29 -68q-51 33 -81 33q-28 0 -67 -33 q79 -75 142 -75q-4 0 78 14z"/>
    <glyph glyph-name="yehwithhamzaaboveinitial" unicode="ئ" horiz-adv-x="435" arabic-form="initial" d="M317 915q-8 -35 -15 -48t-19 -17l-276 -79q4 18 9.5 30.5t16.5 22t28.5 18t46.5 18.5q-66 31 -66 78q0 21 17 44q85 118 163 118q52 0 52 -56q0 -24 -29 -68q-51 33 -81 33q-28 0 -67 -33q79 -75 142 -75q-4 0 78 14zM-26 0v166h222q56 13 76 29t20 39q0 24 -36 75 l-82 104q4 40 11 76.5t13.5 65t11.5 46t6 19.5q48 -47 79 -92.5t49.5 -89.5t26 -86t7.5 -82q0 -85 -36.5 -144t-94.5 -96q-14 -10 -31 -16.5t-46 -11.5z"/>
    <glyph glyph-name="yehwithhamzaabovemedial" unicode="ئ" horiz-adv-x="635" arabic-form="medial" d="M387 615q-8 -35 -15 -48t-19 -17l-276 -79q4 18 9.5 30.5t16.5 22t28.5 18t46.5 18.5q-66 31 -66 78q0 21 17 44q85 118 163 118q52 0 52 -56q0 -24 -29 -68q-51 33 -81 33q-28 0 -67 -33q79 -75 142 -75q-4 0 78 14zM647 0v165h-121q-61 11 -105 44t-77 102 q-26 -28 -49.5 -54t-53 -46.5t-68.5 -32.5t-96 -13h-96l-1 -165h97q32 3 58 7.5t53 13.5t57.5 23.5t72.5 37.5q11 -11 30.5 -25t46.5 -27t61 -21.5t70 -8.5h121z"/>
    <glyph glyph-name="alefisolated" unicode="ا" horiz-adv-x="379" arabic-form="isolated" d="M278 1120l-9 97q-15 -3 -15.5 -3.5t-2.5 -0.5q-14 -11 -25 -30t-21 -41t-19 -44t-19 -38q8 -172 10.5 -322t2.5 -295v-435q22 1 39.5 40t26.5 71.5t15 71t13.5 159.5t7.5 179q0 94 -4 591z"/>
    <glyph glyph-name="aleffinal" unicode="ا" horiz-adv-x="389" arabic-form="final" d="M410 166l1 -167l-121 2q-164 14 -191 120q-20 105 -21 691q-3 168 -6.5 204.5t-8.5 68.5l85 124q18 -10 25 -34t6 -60q4 -162 5.5 -282t1.5 -198q0 -97 -1 -168.5t-1 -122.5t3 -84.5t15 -63t90 -31.5z"/>
    <glyph glyph-name="behisolated" unicode="ب" horiz-adv-x="1580" arabic-form="isolated" d="M1560 256q0 -18 -14.5 -59.5t-49.5 -87.5t-87.5 -72t-126.5 -47t-187 -30t-213 -13t-155 -4.5t-172 3t-215 26.5t-169 63t-111 94.5t-40 116.5q6 47 20.5 90.5t34.5 81t44 67t48 48.5q3 -25 -2.5 -50t-14 -48.5t-15.5 -44t-7 -35.5q0 -53 34 -98t94.5 -78t143.5 -51.5 t348 -23.5l397 7q91 10 149.5 25.5t91.5 32.5t45.5 34t5 49.5t-43 66.5t-50 49.5t-23.5 27t-7 15.5q25 76 42 109t24 33q23 0 45 -17.5t42 -45t37.5 -61.5t30 -67t26.5 -106zM799 -181l-100 -100l100 -100l100 100z"/>
    <glyph glyph-name="behfinal" unicode="ب" horiz-adv-x="1864" arabic-form="final" d="M1893 0q-119 -8 -149.5 0t-77.5 28.5t-80.5 75t-50.5 58.5q-80 -64 -182.5 -106t-217 -67t-237 -35.5t-241.5 -10.5q-158 0 -273 19t-189.5 57t-110.5 96.5t-36 138.5q0 19 7.5 46.5t19.5 58t27.5 60t31.5 53.5t31 38.5t26 14.5q5 -14 4 -22t-5 -17q-15 -32 -24 -53 t-14 -34.5t-6.5 -22t-1.5 -15.5q0 -66 39.5 -116t115 -83.5t186.5 -50.5t255 -17q135 0 253 10.5t216 33t175 58t129 85.5l81 89q8 0 11 -16l-5 -57q18 -42 38 -68t45.5 -40t57 -18.5t152.5 -4.5v-166zM899 -200l-100 -100l100 -100l100 100z"/>
    <glyph glyph-name="behinitial" unicode="ب" horiz-adv-x="434" arabic-form="initial" d="M196 -156l-100 -100l100 -100l100 100zM-14 0v166h222q56 13 76 29t20 39q0 24 -36 75l-82 104q4 40 11 76.5t13.5 65t11.5 46t6 19.5q48 -47 79 -92.5t49.5 -89.5t26 -86t7.5 -82q0 -85 -36.5 -144t-94.5 -96q-14 -10 -31 -16.5t-46 -11.5z"/>
    <glyph glyph-name="behmedial" unicode="ب" horiz-adv-x="632" arabic-form="medial" d="M185 -125l-100 -100l100 -100l100 100zM650 0v165h-121q-61 11 -105 44t-77 102q-26 -28 -49.5 -54t-53 -46.5t-68.5 -32.5t-96 -13h-96l-1 -165h97q32 3 58 7.5t53 13.5t57.5 23.5t72.5 37.5q11 -11 30.5 -25t46.5 -27t61 -21.5t70 -8.5h121z"/>
    <glyph glyph-name="tehmarbutaisolated" unicode="ة" horiz-adv-x="539" arabic-form="isolated" d="M420 844l-100 -100l100 -100l100 100zM120 844l-100 -100l100 -100l100 100zM463 274q0 -38 -8 -76.5t-24 -74t-40.5 -66.5t-56.5 -53q-32 -16 -54.5 -23.5t-47.5 -9.5t-31 -2q-23 0 -45 12.5t-39 35t-27 52t-10 64.5q0 60 60 209q59 146 104 201q64 -33 106 -62.5 t67 -61t35.5 -67t10.5 -78.5zM342 195q0 20 -9.5 40t-25.5 37t-38.5 29.5t-47.5 17.5q-5 -5 -9.5 -11.5t-10 -17.5t-12 -29t-15.5 -46q0 -5 1.5 -11.5t7.5 -13.5t17.5 -13t31.5 -9q52 0 75 5t35 22z"/>
    <glyph glyph-name="tehmarbutafinal" unicode="ة" horiz-adv-x="646" arabic-form="final" d="M440 1021l-100 -100l100 -100l100 100zM140 1021l-100 -100l100 -100l100 100zM667 0q-69 0 -87.5 2t-50.5 3.5t-70 30.5q-31 28 -48.5 78.5t-26.5 157.5q-72 -82 -99.5 -96t-54.5 -18t-57 -4q-113 0 -113 71q1 39 15 79.5t47 81.5t87.5 82t157.5 81q8 165 52 195 q24 -8 21 -52q0 -66 3.5 -135t8 -130t15.5 -134t29.5 -97.5t60 -27t110.5 -2.5v-166zM367 487q-113 -76 -140.5 -114.5t-6.5 -39.5t43 -1q23 0 39.5 2.5t33.5 9t36 16.5z"/>
    <glyph glyph-name="tehisolated" unicode="ت" horiz-adv-x="1580" arabic-form="isolated" d="M879 821l-100 -100l100 -100l100 100zM579 821l-100 -100l100 -100l100 100zM1560 256q0 -18 -14.5 -59.5t-49.5 -87.5t-87.5 -72t-126.5 -47t-187 -30t-213 -13t-155 -4.5t-172 3t-215 26.5t-169 63t-111 94.5t-40 116.5q6 47 20.5 90.5t34.5 81t44 67t48 48.5 q3 -25 -2.5 -50t-14 -48.5t-15.5 -44t-7 -35.5q0 -53 34 -98t94.5 -78t143.5 -51.5t348 -23.5l397 7q91 10 149.5 25.5t91.5 32.5t45.5 34t5 49.5t-43 66.5t-50 49.5t-23.5 27t-7 15.5q25 76 42 109t24 33q23 0 45 -17.5t42 -45t37.5 -61.5t30 -67t26.5 -106z"/>
    <glyph glyph-name="tehfinal" unicode="ت" horiz-adv-x="1833" arabic-form="final" d="M1865 0q-119 -8 -149.5 0t-77.5 28.5t-80.5 75t-50.5 58.5q-80 -64 -182.5 -106t-217 -67t-237 -35.5t-241.5 -10.5q-158 0 -273 19t-189.5 57t-110.5 96.5t-36 138.5q0 19 7.5 46.5t19.5 58t27.5 60t31.5 53.5t31 38.5t26 14.5q5 -14 4 -22t-5 -17q-15 -32 -24 -53 t-14 -34.5t-6.5 -22t-1.5 -15.5q0 -66 39.5 -116t115 -83.5t186.5 -50.5t255 -17q135 0 253 10.5t216 33t175 58t129 85.5l81 89q8 0 11 -16l-5 -57q18 -42 38 -68t45.5 -40t57 -18.5t152.5 -4.5v-166zM966 786l-100 -100l100 -100l100 100zM666 786l-100 -100l100 -100 l100 100z"/>
    <glyph glyph-name="tehinitial" unicode="ت" horiz-adv-x="422" arabic-form="initial" d="M380 904l-100 -100l100 -100l100 100zM80 904l-100 -100l100 -100l100 100zM-24 0v166h222q56 13 76 29t20 39q0 24 -36 75l-82 104q4 40 11 76.5t13.5 65t11.5 46t6 19.5q48 -47 79 -92.5t49.5 -89.5t26 -86t7.5 -82q0 -85 -36.5 -144t-94.5 -96q-14 -10 -31 -16.5 t-46 -11.5z"/>
    <glyph glyph-name="tehmedial" unicode="ت" horiz-adv-x="634" arabic-form="medial" d="M651 0v165h-121q-61 11 -105 44t-77 102q-26 -28 -49.5 -54t-53 -46.5t-68.5 -32.5t-96 -13h-96l-1 -165h97q32 3 58 7.5t53 13.5t57.5 23.5t72.5 37.5q11 -11 30.5 -25t46.5 -27t61 -21.5t70 -8.5h121zM405 753l-100 -100l100 -100l100 100zM105 753l-100 -100l100 -100 l100 100z"/>
    <glyph glyph-name="thehisolated" unicode="ث" horiz-adv-x="1580" arabic-form="isolated" d="M629 752l-100 -100l100 -100l100 100zM929 752l-100 -100l100 -100l100 100zM785 991l-100 -100l100 -100l100 100zM1560 256q0 -18 -14.5 -59.5t-49.5 -87.5t-87.5 -72t-126.5 -47t-187 -30t-213 -13t-155 -4.5t-172 3t-215 26.5t-169 63t-111 94.5t-40 116.5 q6 47 20.5 90.5t34.5 81t44 67t48 48.5q3 -25 -2.5 -50t-14 -48.5t-15.5 -44t-7 -35.5q0 -53 34 -98t94.5 -78t143.5 -51.5t348 -23.5l397 7q91 10 149.5 25.5t91.5 32.5t45.5 34t5 49.5t-43 66.5t-50 49.5t-23.5 27t-7 15.5q25 76 42 109t24 33q23 0 45 -17.5t42 -45 t37.5 -61.5t30 -67t26.5 -106z"/>
    <glyph glyph-name="thehfinal" unicode="ث" horiz-adv-x="1836" arabic-form="final" d="M693 689l-100 -100l100 -100l100 100zM993 689l-100 -100l100 -100l100 100zM849 928l-100 -100l100 -100l100 100zM1865 0q-119 -8 -149.5 0t-77.5 28.5t-80.5 75t-50.5 58.5q-80 -64 -182.5 -106t-217 -67t-237 -35.5t-241.5 -10.5q-158 0 -273 19t-189.5 57 t-110.5 96.5t-36 138.5q0 19 7.5 46.5t19.5 58t27.5 60t31.5 53.5t31 38.5t26 14.5q5 -14 4 -22t-5 -17q-15 -32 -24 -53t-14 -34.5t-6.5 -22t-1.5 -15.5q0 -66 39.5 -116t115 -83.5t186.5 -50.5t255 -17q135 0 253 10.5t216 33t175 58t129 85.5l81 89q8 0 11 -16l-5 -57 q18 -42 38 -68t45.5 -40t57 -18.5t152.5 -4.5v-166z"/>
    <glyph glyph-name="thehinitial" unicode="ث" horiz-adv-x="501" arabic-form="initial" d="M-13 0v166h222q56 13 76 29t20 39q0 24 -36 75l-82 104q4 40 11 76.5t13.5 65t11.5 46t6 19.5q48 -47 79 -92.5t49.5 -89.5t26 -86t7.5 -82q0 -85 -36.5 -144t-94.5 -96q-14 -10 -31 -16.5t-46 -11.5zM111 885l-100 -100l100 -100l100 100zM411 885l-100 -100l100 -100 l100 100zM267 1124l-100 -100l100 -100l100 100z"/>
    <glyph glyph-name="thehmedial" unicode="ث" horiz-adv-x="623" arabic-form="medial" d="M90 801l-100 -100l100 -100l100 100zM390 801l-100 -100l100 -100l100 100zM246 1040l-100 -100l100 -100l100 100zM649 0v165h-121q-61 11 -105 44t-77 102q-26 -28 -49.5 -54t-53 -46.5t-68.5 -32.5t-96 -13h-96l-1 -165h97q32 3 58 7.5t53 13.5t57.5 23.5t72.5 37.5 q11 -11 30.5 -25t46.5 -27t61 -21.5t70 -8.5h121z"/>
    <glyph glyph-name="jeemisolated" unicode="ج" horiz-adv-x="1242" arabic-form="isolated" d="M981 -829l108.5 7t152 13t146 16t93.5 14q-15 -50 -55 -64t-116 -36t-147.5 -40t-113.5 -28t-247 -23q-196 0 -339.5 34.5t-238 107.5t-140.5 187.5t-46 274.5q0 158 50 305.5t164 291.5l116 128q34 41 -35.5 38t-119.5 -44l-104 -89q-2 0 -3.5 2t5 25t18 57t46 75.5 t73.5 69t81 41.5t81 14l168 -16q132 1 208.5 4.5t111.5 14.5l50 8q28 -7 50 -16l-64 -114q-54 -12 -122.5 -25.5t-138 -31t-133.5 -40t-109 -52.5q-24 -16 -55.5 -48t-65 -76.5t-66.5 -98t-58.5 -111t-41.5 -116.5t-16 -114q0 -86 15.5 -155t49.5 -124t87.5 -98t129.5 -77 q106 -48 248 -68.5t323 -22.5zM649 -116l-100 -100l100 -100l100 100z"/>
    <glyph glyph-name="jeemfinal" unicode="ج" horiz-adv-x="1158" arabic-form="final" d="M583 231q31 14 68 26t75 21t73 14.5t62 5.5q13 -87 35.5 -143t53.5 -89t70 -47.5t78 -18.5h103v165h-97q-24 -2 -52.5 5.5t-51.5 25.5t-36.5 45.5t-8.5 64.5q51 26 74.5 54.5t35.5 52.5q-17 57 -28.5 51t-60 -10.5t-111.5 -3t-135 6.5t-141.5 12.5t-130 19t-118.5 11.5 q-68 -22 -100.5 -44t-64 -50.5t-55 -59t-47.5 -89.5q22 -63 87.5 -9.5t92.5 66t54.5 17t55 -1.5t51.5 -27q-35 -34 -70 -69t-67.5 -77.5t-61 -95.5t-50.5 -124t-36 -163t-18 -211q-6 -167 66.5 -285.5t213.5 -184.5t284 -79t250 -13q130 0 208 22.5t128 42t113.5 42.5 t101.5 53v39q-35 -7 -72 -13t-82.5 -9.5t-103 -5.5t-199 -8t-337.5 25q-102 7 -187 42.5t-146.5 96.5t-95.5 145t-34 188q0 91 24.5 174.5t71 156t114 133.5t154.5 107zM675 -59l-100 -100l100 -100l100 100z"/>
    <glyph glyph-name="jeeminitial" unicode="ج" horiz-adv-x="1151" arabic-form="initial" d="M1111 336l-36 -103q-10 -28 -70 -28q-93 5 -156.5 4t-109 -7t-80 -16.5t-70.5 -25.5q-390 -151 -404.5 -154t-70.5 -6h-130l4 165l145 1q41 0 130 17.5t183 50t142 60.5q-16 2 -54 12.5t-78 22.5q-23 7 -48.5 15t-72.5 18q-69 0 -106.5 -23.5t-78.5 -23.5q-22 0 -17 32 q31 66 56 106.5t48.5 63.5t48.5 31t55 8q60 0 114 -30q153 -75 280 -115.5t173 -49.5t86 -14t71 -7t46 -4zM549 -53l-100 -100l100 -100l100 100z"/>
    <glyph glyph-name="jeemmedial" unicode="ج" horiz-adv-x="1244" arabic-form="medial" d="M557 -54l-100 -100l100 -100l100 100zM895 233q-31 -1 -71.5 -10t-84 -22.5t-85.5 -28.5t-76.5 -28.5t-56.5 -22.5t-25 -10q-89 -42 -152 -64.5t-107 -33t-101 -13.5h-150v166h158q27 0 99 12t146 31.5t142.5 43.5t115.5 48q-53 17 -88.5 28t-61 19t-45 13t-40.5 10 q-11 0 -60 -11q-51 -14 -81 -21.5l-46 -11.5t-22 -4.5t-10 -0.5q16 54 27 87t19.5 52t16 29.5t15.5 19.5q35 22 59 33.5t41 16t29.5 5t23.5 0.5q6 0 30 -9.5t59 -24t76.5 -32.5t82.5 -35.5t77 -32t60 -22.5q161 -55 346 -55q13 -29 9.5 -49t-14.5 -43l-23 -43 q-47 0 -73 -0.5t-38.5 -2t-15 -3.5t-2.5 -5q0 -11 9 -24t135 -19l116 1v-166h-104q-103 15 -133 29t-48.5 32.5t-27.5 37.5q-29 39 -49 108z"/>
    <glyph glyph-name="hahisolated" unicode="ح" horiz-adv-x="1253" arabic-form="isolated" d="M1017 -829l108.5 7t152 13t146 16t93.5 14q-15 -50 -55 -64t-116 -36t-147.5 -40t-113.5 -28t-247 -23q-196 0 -339.5 34.5t-238 107.5t-140.5 187.5t-46 274.5q0 158 50 305.5t164 291.5l116 128q34 41 -35.5 38t-119.5 -44l-104 -89q-2 0 -3.5 2t5 25t18 57t46 75.5 t73.5 69t81 41.5t81 14l168 -16q132 1 208.5 4.5t111.5 14.5l50 8q28 -7 50 -16l-64 -114q-54 -12 -122.5 -25.5t-138 -31t-133.5 -40t-109 -52.5q-24 -16 -55.5 -48t-65 -76.5t-66.5 -98t-58.5 -111t-41.5 -116.5t-16 -114q0 -86 15.5 -155t49.5 -124t87.5 -98t129.5 -77 q106 -48 248 -68.5t323 -22.5z"/>
    <glyph glyph-name="hahfinal" unicode="ح" horiz-adv-x="1166" arabic-form="final" d="M563 231q31 14 68 26t75 21t73 14.5t62 5.5q13 -87 35.5 -143t53.5 -89t70 -47.5t78 -18.5h103v165h-97q-24 -2 -52.5 5.5t-51.5 25.5t-36.5 45.5t-8.5 64.5q51 26 74.5 54.5t35.5 52.5q-17 57 -28.5 51t-60 -10.5t-111.5 -3t-135 6.5t-141.5 12.5t-130 19t-118.5 11.5 q-68 -22 -100.5 -44t-64 -50.5t-55 -59t-47.5 -89.5q22 -63 87.5 -9.5t92.5 66t54.5 17t55 -1.5t51.5 -27q-35 -34 -70 -69t-67.5 -77.5t-61 -95.5t-50.5 -124t-36 -163t-18 -211q-6 -167 66.5 -285.5t213.5 -184.5t284 -79t250 -13q130 0 208 22.5t128 42t113.5 42.5 t101.5 53v39q-35 -7 -72 -13t-82.5 -9.5t-103 -5.5t-199 -8t-337.5 25q-102 7 -187 42.5t-146.5 96.5t-95.5 145t-34 188q0 91 24.5 174.5t71 156t114 133.5t154.5 107z"/>
    <glyph glyph-name="hahinitial" unicode="ح" horiz-adv-x="1174" arabic-form="initial" d="M1104 336l-36 -103q-10 -28 -70 -28q-93 5 -156.5 4t-109 -7t-80 -16.5t-70.5 -25.5q-390 -151 -404.5 -154t-70.5 -6h-130l4 165l145 1q41 0 130 17.5t183 50t142 60.5q-16 2 -54 12.5t-78 22.5q-23 7 -48.5 15t-72.5 18q-69 0 -106.5 -23.5t-78.5 -23.5q-22 0 -17 32 q31 66 56 106.5t48.5 63.5t48.5 31t55 8q60 0 114 -30q153 -75 280 -115.5t173 -49.5t86 -14t71 -7t46 -4z"/>
    <glyph glyph-name="hahmedial" unicode="ح" horiz-adv-x="1234" arabic-form="medial" d="M894 233q-31 -1 -71.5 -10t-84 -22.5t-85.5 -28.5t-76.5 -28.5t-56.5 -22.5t-25 -10q-89 -42 -152 -64.5t-107 -33t-101 -13.5h-150v166h158q27 0 99 12t146 31.5t142.5 43.5t115.5 48q-53 17 -88.5 28t-61 19t-45 13t-40.5 10q-11 0 -60 -11q-51 -14 -81 -21.5 l-46 -11.5t-22 -4.5t-10 -0.5q16 54 27 87t19.5 52t16 29.5t15.5 19.5q35 22 59 33.5t41 16t29.5 5t23.5 0.5q6 0 30 -9.5t59 -24t76.5 -32.5t82.5 -35.5t77 -32t60 -22.5q161 -55 346 -55q13 -29 9.5 -49t-14.5 -43l-23 -43q-47 0 -73 -0.5t-38.5 -2t-15 -3.5t-2.5 -5 q0 -11 9 -24t135 -19l116 1v-166h-104q-103 15 -133 29t-48.5 32.5t-27.5 37.5q-29 39 -49 108z"/>
    <glyph glyph-name="khahisolated" unicode="خ" horiz-adv-x="1194" arabic-form="isolated" d="M517 891l-100 -100l100 -100l100 100zM1010 -829l108.5 7t152 13t146 16t93.5 14q-15 -50 -55 -64t-116 -36t-147.5 -40t-113.5 -28t-247 -23q-196 0 -339.5 34.5t-238 107.5t-140.5 187.5t-46 274.5q0 158 50 305.5t164 291.5l116 128q34 41 -35.5 38t-119.5 -44 l-104 -89q-2 0 -3.5 2t5 25t18 57t46 75.5t73.5 69t81 41.5t81 14l168 -16q132 1 208.5 4.5t111.5 14.5l50 8q28 -7 50 -16l-64 -114q-54 -12 -122.5 -25.5t-138 -31t-133.5 -40t-109 -52.5q-24 -16 -55.5 -48t-65 -76.5t-66.5 -98t-58.5 -111t-41.5 -116.5t-16 -114 q0 -86 15.5 -155t49.5 -124t87.5 -98t129.5 -77q106 -48 248 -68.5t323 -22.5z"/>
    <glyph glyph-name="khahfinal" unicode="خ" horiz-adv-x="1173" arabic-form="final" d="M521 843l-100 -100l100 -100l100 100zM576 231q31 14 68 26t75 21t73 14.5t62 5.5q13 -87 35.5 -143t53.5 -89t70 -47.5t78 -18.5h103v165h-97q-24 -2 -52.5 5.5t-51.5 25.5t-36.5 45.5t-8.5 64.5q51 26 74.5 54.5t35.5 52.5q-17 57 -28.5 51t-60 -10.5t-111.5 -3 t-135 6.5t-141.5 12.5t-130 19t-118.5 11.5q-68 -22 -100.5 -44t-64 -50.5t-55 -59t-47.5 -89.5q22 -63 87.5 -9.5t92.5 66t54.5 17t55 -1.5t51.5 -27q-35 -34 -70 -69t-67.5 -77.5t-61 -95.5t-50.5 -124t-36 -163t-18 -211q-6 -167 66.5 -285.5t213.5 -184.5t284 -79 t250 -13q130 0 208 22.5t128 42t113.5 42.5t101.5 53v39q-35 -7 -72 -13t-82.5 -9.5t-103 -5.5t-199 -8t-337.5 25q-102 7 -187 42.5t-146.5 96.5t-95.5 145t-34 188q0 91 24.5 174.5t71 156t114 133.5t154.5 107z"/>
    <glyph glyph-name="khahinitial" unicode="خ" horiz-adv-x="1119" arabic-form="initial" d="M369 931l-100 -100l100 -100l100 100zM1099 336l-36 -103q-10 -28 -70 -28q-93 5 -156.5 4t-109 -7t-80 -16.5t-70.5 -25.5q-390 -151 -404.5 -154t-70.5 -6h-130l4 165l145 1q41 0 130 17.5t183 50t142 60.5q-16 2 -54 12.5t-78 22.5q-23 7 -48.5 15t-72.5 18 q-69 0 -106.5 -23.5t-78.5 -23.5q-22 0 -17 32q31 66 56 106.5t48.5 63.5t48.5 31t55 8q60 0 114 -30q153 -75 280 -115.5t173 -49.5t86 -14t71 -7t46 -4z"/>
    <glyph glyph-name="khahmedial" unicode="خ" horiz-adv-x="1233" arabic-form="medial" d="M464 904l-100 -100l100 -100l100 100zM891 233q-31 -1 -71.5 -10t-84 -22.5t-85.5 -28.5t-76.5 -28.5t-56.5 -22.5t-25 -10q-89 -42 -152 -64.5t-107 -33t-101 -13.5h-150v166h158q27 0 99 12t146 31.5t142.5 43.5t115.5 48q-53 17 -88.5 28t-61 19t-45 13t-40.5 10 q-11 0 -60 -11q-51 -14 -81 -21.5l-46 -11.5t-22 -4.5t-10 -0.5q16 54 27 87t19.5 52t16 29.5t15.5 19.5q35 22 59 33.5t41 16t29.5 5t23.5 0.5q6 0 30 -9.5t59 -24t76.5 -32.5t82.5 -35.5t77 -32t60 -22.5q161 -55 346 -55q13 -29 9.5 -49t-14.5 -43l-23 -43 q-47 0 -73 -0.5t-38.5 -2t-15 -3.5t-2.5 -5q0 -11 9 -24t135 -19l116 1v-166h-104q-103 15 -133 29t-48.5 32.5t-27.5 37.5q-29 39 -49 108z"/>
    <glyph glyph-name="dalisolated" unicode="د" horiz-adv-x="634" arabic-form="isolated" d="M583 168q-2 -42 -20.5 -78t-44.5 -68q-8 -10 -30 -20t-52.5 -19.5t-66.5 -17t-72.5 -13.5t-71 -9.5t-61.5 -3.5q-26 1 -48 8.5t-38.5 24t-26 42t-9.5 63.5q5 54 16 82t34 28q1 0 5.5 -6.5t16 -15.5t31.5 -18.5t52 -15.5q39 -2 85.5 0t91 8.5t81.5 18.5t56 30 q-1 12 -10.5 39t-25 61t-36.5 70.5t-44.5 67.5t-49 52t-49.5 24q-13 0 -18.5 -0.5t-8 -2t-4.5 -3.5t-9 -5q-11 -8 -18.5 18t-4.5 83q11 45 30.5 67t62.5 28q35 -3 79.5 -38t97.5 -113q16 -35 31.5 -73.5t30.5 -94.5t21 -140z"/>
    <glyph glyph-name="dalfinal" unicode="د" horiz-adv-x="958" arabic-form="final" d="M1001 0q-36 2 -68.5 5t-55.5 11t-44.5 23t-46.5 40t-55 62.5t-71 91.5q-39 -62 -99 -104t-124.5 -68.5t-125.5 -38t-101 -11.5q-57 -2 -120 13.5t-70 90.5q0 42 7.5 62t13.5 31t22.5 22t49 -19.5t68.5 -41t99 -3.5t124.5 29t110.5 51t79 59.5t30 53.5q0 -3 -6.5 21 t-21 55.5t-29 74t-32 90.5t-29 82t-2 67t14 50.5t10.5 33.5t14 27q11 -7 23.5 -32.5t23.5 -70.5q45 -147 78.5 -245t60.5 -160t49.5 -94t35.5 -46q23 -23 62.5 -34.5t124.5 -11.5v-166z"/>
    <glyph glyph-name="thalisolated" unicode="ذ" horiz-adv-x="663" arabic-form="isolated" d="M597 168q-2 -42 -20.5 -78t-44.5 -68q-8 -10 -30 -20t-52.5 -19.5t-66.5 -17t-72.5 -13.5t-71 -9.5t-61.5 -3.5q-26 1 -48 8.5t-38.5 24t-26 42t-9.5 63.5q5 54 16 82t34 28q1 0 5.5 -6.5t16 -15.5t31.5 -18.5t52 -15.5q39 -2 85.5 0t91 8.5t81.5 18.5t56 30 q-1 12 -10.5 39t-25 61t-36.5 70.5t-44.5 67.5t-49 52t-49.5 24q-13 0 -18.5 -0.5t-8 -2t-4.5 -3.5t-9 -5q-11 -8 -18.5 18t-4.5 83q11 45 30.5 67t62.5 28q35 -3 79.5 -38t97.5 -113q16 -35 31.5 -73.5t30.5 -94.5t21 -140zM258 1048l-100 -100l100 -100l100 100z"/>
    <glyph glyph-name="thalfinal" unicode="ذ" horiz-adv-x="1018" arabic-form="final" d="M471 1121l-100 -100l100 -100l100 100zM1035 0q-36 2 -68.5 5t-55.5 11t-44.5 23t-46.5 40t-55 62.5t-71 91.5q-39 -62 -99 -104t-124.5 -68.5t-125.5 -38t-101 -11.5q-57 -2 -120 13.5t-70 90.5q0 42 7.5 62t13.5 31t22.5 22t49 -19.5t68.5 -41t99 -3.5t124.5 29 t110.5 51t79 59.5t30 53.5q0 -3 -6.5 21t-21 55.5t-29 74t-32 90.5t-29 82t-2 67t14 50.5t10.5 33.5t14 27q11 -7 23.5 -32.5t23.5 -70.5q45 -147 78.5 -245t60.5 -160t49.5 -94t35.5 -46q23 -23 62.5 -34.5t124.5 -11.5v-166z"/>
    <glyph glyph-name="rehisolated" unicode="ر" horiz-adv-x="760" arabic-form="isolated" d="M727 184q0 16 -8 40.5t-20.5 53t-28.5 57t-32 51t-30 37t-23 14.5q-5 -3 -14 -19.5t-17.5 -35t-15 -35t-6.5 -19.5q0 -7 3.5 -19.5t27.5 -45.5t61 -103.5t15 -124t-42 -94t-52 -77.5t-78.5 -73t-95 -62.5t-96.5 -41.5t-89 -16l-166 -9q8 -23 16 -31t15 -10 q102 -20 172 -29t162 -11q54 11 71 20q40 20 76 57t66 85t54 103.5t40.5 113.5t25.5 115.5t9 108.5z"/>
    <glyph glyph-name="rehfinal" unicode="ر" horiz-adv-x="942" arabic-form="final" d="M978 0l-141 -1l-70 16l-1 -19q1 -25 1.5 -38t-0.5 -31t-4 -42.5t-8 -45.5t-12.5 -45.5t-19.5 -51t-29 -52.5l-46 -71q-2 -4 -12.5 -15t-29.5 -28l-52 -41q-10 -8 -25.5 -17.5t-35.5 -20.5l-65 -27l-52 -8q-51 8 -99 23.5t-93 36t-79.5 41t-43.5 30.5q-37 15 -41 28 q0 5 9 8q26 -9 51 -16.5t48 -14.5q19 -6 73 -9.5t125 7.5t93.5 20.5t40.5 19t42 22.5q30 16 61.5 40.5t59 54t49.5 62.5t32 99q0 29 -1.5 44t-7.5 33t-17 37t-30 38l-33 32l4 41q6 55 19.5 95.5t27.5 57.5l81 -82l38 -17q45 -21 73 -27l118 1z"/>
    <glyph glyph-name="zainisolated" unicode="ز" horiz-adv-x="780" arabic-form="isolated" d="M486 765l-100 -100l100 -100l100 100zM727 184q0 16 -8 40.5t-20.5 53t-28.5 57t-32 51t-30 37t-23 14.5q-5 -3 -14 -19.5t-17.5 -35t-15 -35t-6.5 -19.5q0 -7 3.5 -19.5t27.5 -45.5t61 -103.5t15 -124t-42 -94t-52 -77.5t-78.5 -73t-95 -62.5t-96.5 -41.5t-89 -16 l-166 -9q8 -23 16 -31t15 -10q102 -20 172 -29t162 -11q54 11 71 20q40 20 76 57t66 85t54 103.5t40.5 113.5t25.5 115.5t9 108.5z"/>
    <glyph glyph-name="zainfinal" unicode="ز" horiz-adv-x="922" arabic-form="final" d="M579 592l-100 -100l100 -100l100 100zM978 0l-141 -1l-70 16l-1 -19q1 -25 1.5 -38t-0.5 -31t-4 -42.5t-8 -45.5t-12.5 -45.5t-19.5 -51t-29 -52.5l-46 -71q-2 -4 -12.5 -15t-29.5 -28l-52 -41q-10 -8 -25.5 -17.5t-35.5 -20.5l-65 -27l-52 -8q-51 8 -99 23.5t-93 36 t-79.5 41t-43.5 30.5q-37 15 -41 28q0 5 9 8q26 -9 51 -16.5t48 -14.5q19 -6 73 -9.5t125 7.5t93.5 20.5t40.5 19t42 22.5q30 16 61.5 40.5t59 54t49.5 62.5t32 99q0 29 -1.5 44t-7.5 33t-17 37t-30 38l-33 32l4 41q6 55 19.5 95.5t27.5 57.5l81 -82l38 -17q45 -21 73 -27 l118 1z"/>
    <glyph glyph-name="seenisolated" unicode="س" horiz-adv-x="1396" arabic-form="isolated" d="M1344 489q0 -15 -4.5 -45.5t-11.5 -63t-15.5 -59.5t-15.5 -35q-14 -29 -46.5 -40.5t-69.5 -10.5t-70 13t-47 31q-17 -26 -35 -45.5t-45.5 -33t-69 -20t-104.5 -6.5q14 -119 -7.5 -215.5t-81 -169t-159 -120.5t-241.5 -69q-96 3 -139 26.5t-82 68.5t-59.5 105t-20.5 126 q0 19 6 49.5t15.5 64.5t21.5 68t24 61.5t22.5 44.5t16.5 17q11 0 11 -22q0 -7 -6 -19.5t-12.5 -36.5t-12 -61t-4.5 -94q0 -114 61.5 -177t186.5 -63q67 0 133.5 19.5t121 53t93 78.5t49.5 95q0 30 -3 59t-12.5 65t-28.5 82.5t-52 111.5q0 4 3 29.5t9 54.5t14.5 52.5 t19.5 23.5q9 0 17 -6.5t17.5 -22.5t21.5 -42.5t29 -66.5q60 0 103 5t72.5 15.5t48 26.5t31.5 37l66 158q14 1 23 -4t18 -37l-28 -96q4 -15 28 -24t49.5 -12t44.5 -1.5t17.5 14t-4.5 22t-9 23.5t-15 37l47 125q33 -18 51.5 -55t18.5 -89z"/>
    <glyph glyph-name="seenfinal" unicode="س" horiz-adv-x="1681" arabic-form="final" d="M1720 0h-71q-129 0 -164.5 26t-53.5 74q-25 -59 -66.5 -82.5t-87.5 -22.5t-89.5 20t-72.5 46q-33 -30 -67 -44t-68 -17.5t-67.5 0.5t-66.5 12q0 -95 -17.5 -182.5t-55.5 -160t-98.5 -126.5t-146.5 -82q-52 -17 -169 -28q-113 13 -164.5 33.5t-90.5 56.5t-56.5 86 t-27.5 126q0 45 11.5 96t27 96t32 78.5t27.5 44.5q14 22 25 31t17 8.5t6.5 -8t-5.5 -18.5q-56 -98 -75 -219q-8 -49 12 -95t57.5 -82t86.5 -57.5t99 -21.5q87 0 166.5 22t139.5 63t96 99t36 130q0 26 -2.5 50.5t-10.5 52.5t-22.5 61.5t-38.5 78.5q10 57 17.5 90.5t12.5 51 t8.5 23t6.5 5.5t6.5 -2.5t10.5 -12.5t19 -29.5t32 -53.5q16 -27 47.5 -37.5t65.5 -12.5t62.5 1.5t37.5 5.5q25 5 42.5 13t31.5 18.5t25 25t23 32.5q4 7 18 21t28.5 24t26 11.5t11.5 -16.5q0 -9 -4.5 -28.5t-19.5 -67.5q1 -10 15.5 -18t35.5 -13t45.5 -6t45.5 3t36.5 13 t18.5 24q23 43 38 69t25.5 40t17 19t11.5 5q8 0 10.5 -13t1 -30t-6 -34t-10.5 -26q30 -33 71 -54.5t79 -20.5l73 -1v-164z"/>
    <glyph glyph-name="seeninitial" unicode="س" horiz-adv-x="1138" arabic-form="initial" d="M1080 313q0 -53 -11.5 -103.5t-33 -90.5t-53 -64.5t-70.5 -24.5q-9 0 -20.5 2.5t-28 9.5t-40 19.5t-56.5 32.5q-11 -26 -38 -48t-64 -28t-165 -15q-39 0 -79 6.5t-59 68.5q-47 -59 -93.5 -65t-91 -7t-81.5 -3t-114 -3v166h190t128 23.5t92.5 80.5t54 71.5t26.5 -13.5 q-10 -53 -17 -83t-13 -54q84 -12 141.5 -6.5t95.5 10.5t59.5 29.5t33.5 60.5q23 73 31 81q1 7 9.5 14t17.5 11t16 2.5t5 -11.5q-5 -29 -8.5 -48.5t-6.5 -33t-5 -23t-4 -18.5q3 -9 20.5 -22.5t42 -22.5t52 -9.5t49.5 16.5q0 16 -3 29.5t-11 31.5q3 16 10.5 41.5t16 50.5 t16 43.5t11.5 21.5q6 0 14 -14.5t15.5 -34.5t13 -41.5t5.5 -35.5z"/>
    <glyph glyph-name="seenmedial" unicode="س" horiz-adv-x="1246" arabic-form="medial" d="M1269 -1v166h-68q-45 19 -61.5 27t-29 17.5t-23.5 21.5t-23 27q19 37 19 90l-6 15l-13 -5q-34 -28 -74 -115q-13 -21 -33 -34t-44 -17.5t-50 0.5t-51 21q0 3 0.5 7t3 13t7 24.5t12.5 40.5q2 16 -11.5 13t-30.5 -13.5t-31 -24t-13 -17.5q-3 -28 -36 -49.5t-82.5 -30 t-109 -1.5t-114.5 36q4 7 9.5 17.5t10 21t8 20.5t3.5 17q0 17 -17 14q-40 -28 -79.5 -54t-79.5 -45.5t-123 -36.5h-163l2 -166l159 -1q68 17 98 30.5t54 30t40 31.5q-4 -27 20 -45.5t63.5 -29t88 -12.5t93.5 5.5t80 23.5t48 42q28 -27 63 -43t70 -19t68 8t56 38 q7 8 20.5 34.5t33.5 71.5q26 -46 44 -73t32.5 -43t28.5 -24.5t32 -16.5q6 -2 31 -7z"/>
    <glyph glyph-name="sheenisolated" unicode="ش" horiz-adv-x="1456" arabic-form="isolated" d="M1395 489q0 -15 -4.5 -45.5t-11.5 -63t-15.5 -59.5t-15.5 -35q-14 -29 -46.5 -40.5t-69.5 -10.5t-70 13t-47 31q-17 -26 -35 -45.5t-45.5 -33t-69 -20t-104.5 -6.5q14 -119 -7.5 -215.5t-81 -169t-159 -120.5t-241.5 -69q-96 3 -139 26.5t-82 68.5t-59.5 105t-20.5 126 q0 19 6 49.5t15.5 64.5t21.5 68t24 61.5t22.5 44.5t16.5 17q11 0 11 -22q0 -7 -6 -19.5t-12.5 -36.5t-12 -61t-4.5 -94q0 -114 61.5 -177t186.5 -63q67 0 133.5 19.5t121 53t93 78.5t49.5 95q0 30 -3 59t-12.5 65t-28.5 82.5t-52 111.5q0 4 3 29.5t9 54.5t14.5 52.5 t19.5 23.5q9 0 17 -6.5t17.5 -22.5t21.5 -42.5t29 -66.5q60 0 103 5t72.5 15.5t48 26.5t31.5 37l66 158q14 1 23 -4t18 -37l-28 -96q4 -15 28 -24t49.5 -12t44.5 -1.5t17.5 14t-4.5 22t-9 23.5t-15 37l47 125q33 -18 51.5 -55t18.5 -89zM862 897l-100 -100l100 -100l100 100 zM1162 897l-100 -100l100 -100l100 100zM1018 1136l-100 -100l100 -100l100 100z"/>
    <glyph glyph-name="sheenfinal" unicode="ش" horiz-adv-x="1727" arabic-form="final" d="M1754 0h-71q-129 0 -164.5 26t-53.5 74q-25 -59 -66.5 -82.5t-87.5 -22.5t-89.5 20t-72.5 46q-33 -30 -67 -44t-68 -17.5t-67.5 0.5t-66.5 12q0 -95 -17.5 -182.5t-55.5 -160t-98.5 -126.5t-146.5 -82q-52 -17 -169 -28q-113 13 -164.5 33.5t-90.5 56.5t-56.5 86 t-27.5 126q0 45 11.5 96t27 96t32 78.5t27.5 44.5q14 22 25 31t17 8.5t6.5 -8t-5.5 -18.5q-56 -98 -75 -219q-8 -49 12 -95t57.5 -82t86.5 -57.5t99 -21.5q87 0 166.5 22t139.5 63t96 99t36 130q0 26 -2.5 50.5t-10.5 52.5t-22.5 61.5t-38.5 78.5q10 57 17.5 90.5t12.5 51 t8.5 23t6.5 5.5t6.5 -2.5t10.5 -12.5t19 -29.5t32 -53.5q16 -27 47.5 -37.5t65.5 -12.5t62.5 1.5t37.5 5.5q25 5 42.5 13t31.5 18.5t25 25t23 32.5q4 7 18 21t28.5 24t26 11.5t11.5 -16.5q0 -9 -4.5 -28.5t-19.5 -67.5q1 -10 15.5 -18t35.5 -13t45.5 -6t45.5 3t36.5 13 t18.5 24q23 43 38 69t25.5 40t17 19t11.5 5q8 0 10.5 -13t1 -30t-6 -34t-10.5 -26q30 -33 71 -54.5t79 -20.5l73 -1v-164zM1029 709l-100 -100l100 -100l100 100zM1329 709l-100 -100l100 -100l100 100zM1185 948l-100 -100l100 -100l100 100z"/>
    <glyph glyph-name="sheeninitial" unicode="ش" horiz-adv-x="1124" arabic-form="initial" d="M1072 313q0 -53 -11.5 -103.5t-33 -90.5t-53 -64.5t-70.5 -24.5q-9 0 -20.5 2.5t-28 9.5t-40 19.5t-56.5 32.5q-11 -26 -38 -48t-64 -28t-165 -15q-39 0 -79 6.5t-59 68.5q-47 -59 -93.5 -65t-91 -7t-81.5 -3t-114 -3v166h190t128 23.5t92.5 80.5t54 71.5t26.5 -13.5 q-10 -53 -17 -83t-13 -54q84 -12 141.5 -6.5t95.5 10.5t59.5 29.5t33.5 60.5q23 73 31 81q1 7 9.5 14t17.5 11t16 2.5t5 -11.5q-5 -29 -8.5 -48.5t-6.5 -33t-5 -23t-4 -18.5q3 -9 20.5 -22.5t42 -22.5t52 -9.5t49.5 16.5q0 16 -3 29.5t-11 31.5q3 16 10.5 41.5t16 50.5 t16 43.5t11.5 21.5q6 0 14 -14.5t15.5 -34.5t13 -41.5t5.5 -35.5zM503 808l-100 -100l100 -100l100 100zM803 808l-100 -100l100 -100l100 100zM659 1047l-100 -100l100 -100l100 100z"/>
    <glyph glyph-name="sheenmedial" unicode="ش" horiz-adv-x="1245" arabic-form="medial" d="M1270 -1v166h-68q-45 19 -61.5 27t-29 17.5t-23.5 21.5t-23 27q19 37 19 90l-6 15l-13 -5q-34 -28 -74 -115q-13 -21 -33 -34t-44 -17.5t-50 0.5t-51 21q0 3 0.5 7t3 13t7 24.5t12.5 40.5q2 16 -11.5 13t-30.5 -13.5t-31 -24t-13 -17.5q-3 -28 -36 -49.5t-82.5 -30 t-109 -1.5t-114.5 36q4 7 9.5 17.5t10 21t8 20.5t3.5 17q0 17 -17 14q-40 -28 -79.5 -54t-79.5 -45.5t-123 -36.5h-163l2 -166l159 -1q68 17 98 30.5t54 30t40 31.5q-4 -27 20 -45.5t63.5 -29t88 -12.5t93.5 5.5t80 23.5t48 42q28 -27 63 -43t70 -19t68 8t56 38 q7 8 20.5 34.5t33.5 71.5q26 -46 44 -73t32.5 -43t28.5 -24.5t32 -16.5q6 -2 31 -7zM542 793l-100 -100l100 -100l100 100zM842 793l-100 -100l100 -100l100 100zM698 1032l-100 -100l100 -100l100 100z"/>
    <glyph glyph-name="sadisolated" unicode="ص" horiz-adv-x="1694" arabic-form="isolated" d="M1646 549q0 -81 -47.5 -158t-130 -137t-193 -97t-237.5 -37q-43 0 -80 6t-79 24q-15 -124 -41 -230t-79.5 -184t-142.5 -122t-230 -44q-98 0 -164 33t-115.5 100.5t-58.5 182.5q6 115 28.5 203t55.5 146q17 -2 19.5 -11t2.5 -19q0 -3 -7.5 -28t-16 -58t-16 -66t-7.5 -51 q0 -45 14.5 -90.5t48.5 -81.5t90.5 -59t140.5 -23q65 0 133 17t125.5 46.5t97 69.5t47.5 86q0 63 -5.5 112.5t-18.5 90.5t-34.5 76.5t-52.5 70.5q-2 5 2.5 13.5l13.5 25.5t20.5 45t22.5 72q10 0 16.5 -2t15.5 -13t24 -36.5t41 -71.5l98 -31q104 112 179.5 185.5t130.5 116.5 t93.5 60t68.5 17q43 0 83.5 -11t72.5 -31t51.5 -47.5t19.5 -59.5zM1528 438q-5 42 -47.5 63t-127.5 21q-18 0 -41 -8.5t-58.5 -32.5t-88 -67.5t-130.5 -114.5q82 0 158 13t140.5 33t114.5 44.5t80 48.5z"/>
    <glyph glyph-name="sadfinal" unicode="ص" horiz-adv-x="1797" arabic-form="final" d="M1832 0h-153q-32 -3 -50 -3q-28 0 -37 1t-12 1q-77 -12 -161.5 -26.5t-163.5 -25t-147.5 -14.5t-113.5 5l-69 13q3 -50 2.5 -99t-19 -102t-63 -112.5t-129.5 -130.5q-33 -28 -74.5 -49.5t-86.5 -36t-90.5 -22t-85.5 -7.5q-33 0 -69.5 6.5t-71.5 19t-66.5 31t-55.5 42.5 q-41 37 -62.5 84.5t-33.5 152.5q3 111 25 165t44.5 104.5t47.5 92.5q7 1 10.5 -2t4.5 -7.5t0.5 -10t-1.5 -9.5q-21 -61 -32.5 -100.5t-17 -64t-7 -37.5t-2.5 -21q0 -47 18.5 -94t57 -84.5t97.5 -60.5t141 -23q60 0 125 14.5t125 41.5t110.5 65.5t81.5 87.5q4 45 -2.5 97 t-20 103.5t-31.5 98t-36 80.5q1 6 3 14t7 21.5t14 35t23 54.5q5 -4 11 -10.5t17.5 -22.5t31 -44.5t52.5 -76.5q31 -6 49 -6l149 137q73 67 129.5 112.5t99 73t74 39t55.5 11.5q28 0 64.5 -12.5t69 -31.5t55 -42t22.5 -45q1 -24 -2.5 -44.5t-14.5 -44.5t-30.5 -55t-50.5 -77 q57 3 91.5 10.5t154.5 5.5v-166zM1551 248q-18 21 -32 36.5t-27.5 25t-28 14t-33.5 4.5q-29 -1 -58 -6t-60 -17t-64.5 -33.5t-70.5 -55.5l-108 -99q69 0 137.5 9.5t132 26.5t118 41.5t94.5 53.5z"/>
    <glyph glyph-name="sadinitial" unicode="ص" horiz-adv-x="1343" arabic-form="initial" d="M1323 455q-4 -20 -8.5 -37.5t-13.5 -41.5t-24 -57t-40 -84q-70 -69 -181.5 -118t-255.5 -75q-72 -6 -123 -7t-89 1.5t-66 6.5t-54 8q-10 -27 -15.5 -41.5t-12.5 -26t-18.5 -22.5t-32.5 -30q-10 6 -11.5 15t-2 18t-0.5 12q8 21 14 35.5t10.5 25t8.5 19t9 16.5 q-5 3 -12 7.5t-18 13.5t-29 23.5t-46 38.5q-7 -22 -18.5 -41.5t-35 -37.5t-61.5 -35t-111 -41h-104v166h71q57 8 85.5 15.5t53.5 17t41 20.5q24 23 40 38t28 24t21 13.5t18 7.5l183 -75q10 16 31.5 39.5t50 51.5t63.5 58.5t71.5 60.5t73.5 57.5t71 49.5q126 81 191 81 q33 0 76 -16.5t81 -41.5t64.5 -55t26.5 -57zM1191 344q-9 27 -31 47t-48.5 33.5t-53 20t-44.5 6.5q-8 -1 -18.5 -3t-27.5 -9.5t-44 -22t-68.5 -40.5t-100 -65.5t-138.5 -96.5q79 -10 157 -3.5t151.5 25t141 46.5t124.5 62z"/>
    <glyph glyph-name="sadmedial" unicode="ص" horiz-adv-x="1349" arabic-form="medial" d="M1365 0l-359 -3q-20 0 -60 3.5t-81.5 8.5t-75.5 10.5t-43 10.5q-54 -12 -96 -19t-76.5 -9t-65 0t-62.5 8q-15 -12 -63 -108q-8 -26 -26 -41q-12 9 -13 22t6 29l39 110q-25 0 -44 17t-51.5 45t-39.5 22.5t-19.5 -19t-34.5 -35.5t-94 -49l-52 -3h-68l3 165h94q36 8 64.5 23 t52 31.5t42.5 30.5t35 17q6 0 62 -48q59 -47 130 -47q74 78 125 129.5t89.5 87t70.5 61.5t68 53q40 30 71 49t82 36q44 -2 66 -12q47 -21 76.5 -39.5t46 -34.5t23 -30t7.5 -26q0 -38 -14 -79.5t-39 -81.5t-59.5 -76t-75.5 -62q42 0 69.5 1.5t47.5 4t36 5.5t35 5t44.5 3 t126.5 0v-166zM1085 354q-12 9 -32.5 18t-43.5 15.5t-47 11t-42 4.5t-41.5 -6.5t-60 -30.5t-89 -70.5t-127.5 -125.5q25 -4 66 2.5t89.5 20t100 33t97 41.5t80.5 44.5t50 42.5z"/>
    <glyph glyph-name="dadisolated" unicode="ض" horiz-adv-x="1694" arabic-form="isolated" d="M1646 549q0 -81 -47.5 -158t-130 -137t-193 -97t-237.5 -37q-43 0 -80 6t-79 24q-15 -124 -41 -230t-79.5 -184t-142.5 -122t-230 -44q-98 0 -164 33t-115.5 100.5t-58.5 182.5q6 115 28.5 203t55.5 146q17 -2 19.5 -11t2.5 -19q0 -3 -7.5 -28t-16 -58t-16 -66t-7.5 -51 q0 -45 14.5 -90.5t48.5 -81.5t90.5 -59t140.5 -23q65 0 133 17t125.5 46.5t97 69.5t47.5 86q0 63 -5.5 112.5t-18.5 90.5t-34.5 76.5t-52.5 70.5q-2 5 2.5 13.5l13.5 25.5t20.5 45t22.5 72q10 0 16.5 -2t15.5 -13t24 -36.5t41 -71.5l98 -31q104 112 179.5 185.5t130.5 116.5 t93.5 60t68.5 17q43 0 83.5 -11t72.5 -31t51.5 -47.5t19.5 -59.5zM1528 438q-5 42 -47.5 63t-127.5 21q-18 0 -41 -8.5t-58.5 -32.5t-88 -67.5t-130.5 -114.5q82 0 158 13t140.5 33t114.5 44.5t80 48.5zM1037 974l-100 -100l100 -100l100 100z"/>
    <glyph glyph-name="dadfinal" unicode="ض" horiz-adv-x="1797" arabic-form="final" d="M1111 823l-100 -100l100 -100l100 100zM1832 0h-153q-32 -3 -50 -3q-28 0 -37 1t-12 1q-77 -12 -161.5 -26.5t-163.5 -25t-147.5 -14.5t-113.5 5l-69 13q3 -50 2.5 -99t-19 -102t-63 -112.5t-129.5 -130.5q-33 -28 -74.5 -49.5t-86.5 -36t-90.5 -22t-85.5 -7.5 q-33 0 -69.5 6.5t-71.5 19t-66.5 31t-55.5 42.5q-41 37 -62.5 84.5t-33.5 152.5q3 111 25 165t44.5 104.5t47.5 92.5q7 1 10.5 -2t4.5 -7.5t0.5 -10t-1.5 -9.5q-21 -61 -32.5 -100.5t-17 -64t-7 -37.5t-2.5 -21q0 -47 18.5 -94t57 -84.5t97.5 -60.5t141 -23q60 0 125 14.5 t125 41.5t110.5 65.5t81.5 87.5q4 45 -2.5 97t-20 103.5t-31.5 98t-36 80.5q1 6 3 14t7 21.5t14 35t23 54.5q5 -4 11 -10.5t17.5 -22.5t31 -44.5t52.5 -76.5q31 -6 49 -6l149 137q73 67 129.5 112.5t99 73t74 39t55.5 11.5q28 0 64.5 -12.5t69 -31.5t55 -42t22.5 -45 q1 -24 -2.5 -44.5t-14.5 -44.5t-30.5 -55t-50.5 -77q57 3 91.5 10.5t154.5 5.5v-166zM1551 248q-18 21 -32 36.5t-27.5 25t-28 14t-33.5 4.5q-29 -1 -58 -6t-60 -17t-64.5 -33.5t-70.5 -55.5l-108 -99q69 0 137.5 9.5t132 26.5t118 41.5t94.5 53.5z"/>
    <glyph glyph-name="dadinitial" unicode="ض" horiz-adv-x="1325" arabic-form="initial" d="M1305 455q-4 -20 -8.5 -37.5t-13.5 -41.5t-24 -57t-40 -84q-70 -69 -181.5 -118t-255.5 -75q-72 -6 -123 -7t-89 1.5t-66 6.5t-54 8q-10 -27 -15.5 -41.5t-12.5 -26t-18.5 -22.5t-32.5 -30q-10 6 -11.5 15t-2 18t-0.5 12q8 21 14 35.5t10.5 25t8.5 19t9 16.5 q-5 3 -12 7.5t-18 13.5t-29 23.5t-46 38.5q-7 -22 -18.5 -41.5t-35 -37.5t-61.5 -35t-111 -41h-104v166h71q57 8 85.5 15.5t53.5 17t41 20.5q24 23 40 38t28 24t21 13.5t18 7.5l183 -75q10 16 31.5 39.5t50 51.5t63.5 58.5t71.5 60.5t73.5 57.5t71 49.5q126 81 191 81 q33 0 76 -16.5t81 -41.5t64.5 -55t26.5 -57zM1173 344q-9 27 -31 47t-48.5 33.5t-53 20t-44.5 6.5q-8 -1 -18.5 -3t-27.5 -9.5t-44 -22t-68.5 -40.5t-100 -65.5t-138.5 -96.5q79 -10 157 -3.5t151.5 25t141 46.5t124.5 62zM642 951l-100 -100l100 -100l100 100z"/>
    <glyph glyph-name="dadmedial" unicode="ض" horiz-adv-x="1336" arabic-form="medial" d="M1355 0l-359 -3q-20 0 -60 3.5t-81.5 8.5t-75.5 10.5t-43 10.5q-54 -12 -96 -19t-76.5 -9t-65 0t-62.5 8q-15 -12 -63 -108q-8 -26 -26 -41q-12 9 -13 22t6 29l39 110q-25 0 -44 17t-51.5 45t-39.5 22.5t-19.5 -19t-34.5 -35.5t-94 -49l-52 -3h-68l3 165h94q36 8 64.5 23 t52 31.5t42.5 30.5t35 17q6 0 62 -48q59 -47 130 -47q74 78 125 129.5t89.5 87t70.5 61.5t68 53q40 30 71 49t82 36q44 -2 66 -12q47 -21 76.5 -39.5t46 -34.5t23 -30t7.5 -26q0 -38 -14 -79.5t-39 -81.5t-59.5 -76t-75.5 -62q42 0 69.5 1.5t47.5 4t36 5.5t35 5t44.5 3 t126.5 0v-166zM1075 354q-12 9 -32.5 18t-43.5 15.5t-47 11t-42 4.5t-41.5 -6.5t-60 -30.5t-89 -70.5t-127.5 -125.5q25 -4 66 2.5t89.5 20t100 33t97 41.5t80.5 44.5t50 42.5zM622 935l-100 -100l100 -100l100 100z"/>
    <glyph glyph-name="tahisolated" unicode="ط" horiz-adv-x="1433" arabic-form="isolated" d="M1413 363q0 27 -26 53t-65 47.5t-83 36t-80 17.5q-20 9 -59.5 -3t-88.5 -37t-102.5 -59t-102.5 -69t-88.5 -67t-59.5 -53q6 19 9 31t4.5 19t2 10.5t0.5 5.5q-4 84 -5.5 175t-3.5 178.5t-4.5 167t-3.5 139.5t-5 95.5t-5 36.5q17 19 27 33t13.5 29t2 34.5t-7.5 49.5 q-9 0 -22.5 11t-28.5 28t-29.5 36.5t-33.5 53.5q-22 -11 -34.5 -34t-23 -47t-12.5 -38q-7 -23 7.5 -64t52.5 -90q6 -92 6.5 -186.5t7 -202t12.5 -232t14 -276.5l-109 -65h-89q-48 0 -86.5 1t-78.5 3.5t-89 7t-126 3.5q1 -10 2 -14.5t2 -5.5q93 -56 147 -88t81.5 -48 t36 -19.5t11.5 -3.5q76 -11 259 -18q193 9 288 21t178.5 31.5t149 47t102.5 62.5q31 34 56 57.5t43 49.5t27.5 60t9.5 89zM1262 240q-48 -29 -77.5 -44t-52 -22.5t-43.5 -11t-51 -9.5q-6 -1 -18.5 -3t-49 -5t-107.5 -6.5t-194 -8.5q61 49 122 88t116.5 66t103 41.5 t82.5 14.5q30 -6 66 -19t64.5 -28t41.5 -29.5t-3 -23.5z"/>
    <glyph glyph-name="tahfinal" unicode="ط" horiz-adv-x="1450" arabic-form="final" d="M1482 0v165h-194l-104 -14q17 12 39.5 42t36 57t19 47t5.5 26q0 29 -21.5 58.5t-55 54.5t-75.5 42t-82 22q-26 -1 -61 -10.5t-88 -35t-128 -69.5t-181 -114q15 87 21.5 171.5t6.5 184.5t-7 224.5t-19 291.5q3 9 9 21t12.5 24t11.5 23t6 19q2 11 -2.5 17.5t-13.5 13 t-21 16t-25 25.5q-10 13 -16.5 34t-10.5 40.5t-6.5 33.5t-3.5 14q-9 0 -21 -22t-23 -50.5t-19 -56t-9 -38.5q4 -33 7.5 -54.5t7 -34.5t7.5 -19.5t9 -10.5q9 -105 15.5 -186.5t11.5 -150.5t7.5 -130.5t3.5 -126.5t0.5 -138.5t-2.5 -166.5q-35 -30 -60 -48.5t-43 -30 t-32.5 -17t-28.5 -9.5l-293 7l-52 -10l50 -41l381 -120q68 2 109 3.5t64 3t33.5 2t18.5 0.5q71 1 120 2t91 1.5t84.5 1.5t99.5 2q8 0 31 1t53 2.5t63.5 3.5t63.5 3.5t76 3.5h124zM1150 246q-21 -15 -43.5 -29t-53 -26.5t-71.5 -23t-98.5 -19t-134.5 -14t-179 -7.5 q40 34 94 74t114 72.5t120.5 50.5t114.5 8q10 -2 31.5 -13.5t44 -26t40.5 -27.5t21 -19z"/>
    <glyph glyph-name="tahinitial" unicode="ط" horiz-adv-x="1021" arabic-form="initial" d="M1001 385q0 -43 -16.5 -82t-45 -74t-65.5 -64t-79 -52t-86 -38.5t-85 -22.5q-52 -9 -105.5 -18t-110.5 -16t-119 -12t-131 -6h-187v166h212q22 20 44 39.5t44 39.5q6 19 5 70t-6.5 121.5t-9 152.5t-8 163.5t-3.5 154.5t-5 125q-4 9 -7.5 20.5t-7.5 28t-7.5 40.5t-7.5 59 q3 22 9 45.5t14.5 43.5t29.5 51q60 -77 75.5 -93.5t23.5 -27.5t10 -16t-2 -22t-11 -41.5t-16.5 -50.5t-19.5 -40q12 -130 15 -217.5t6 -152.5t2.5 -112t0 -87.5t-2.5 -81.5t-10 -93l24 13q64 52 109.5 89t80 62t61 39.5t52 22.5t53 11t64.5 4q12 0 33 -5t45.5 -13.5 t49.5 -21.5t45 -28.5t33 -34t13 -38.5zM863 282q-29 33 -53.5 51.5t-45.5 28t-39.5 12.5t-34.5 5q-35 0 -82 -19.5t-98 -50.5t-101 -69t-90 -75q75 2 146.5 11t134 22t114 27t87 26.5t52.5 21t10 9.5z"/>
    <glyph glyph-name="tahmedial" unicode="ط" horiz-adv-x="1039" arabic-form="medial" d="M1065 0h-281q-60 -2 -94 -4t-59 -2t-51.5 3.5t-72.5 14.5q-51 4 -84.5 6t-58.5 2q-24 0 -41.5 -1t-33.5 -3l-124 -16h-200v166l163 4l99 96q-1 54 -6 124t-7 146.5t-5.5 154.5t-6.5 149t-5 129.5t-6.5 107t-5.5 45.5t-4.5 12.5t-9 42.5t-13.5 71q20 49 33 78t21.5 45 t13 21t7.5 5q6 -38 21 -64t48 -59q44 -44 47 -62q-2 -12 -7 -31t-14 -39t-22 -38t-29 -27q12 -96 16 -172.5t5 -141t0 -120.5t-4 -110t-2 -109t1 -118q79 70 137 119.5t100 83.5t71 54t50 30.5t36.5 13.5t30.5 3q28 0 63 -14.5t65.5 -38t51.5 -52.5t21 -59t-14 -70 t-39.5 -83t-61 -84t-78.5 -72q21 0 59 4.5t123 23.5l157 1v-166zM794 356q-25 44 -54.5 58t-61.5 14h-42q-24 0 -56.5 -12.5t-75.5 -41t-98 -76t-124 -116.5q159 0 320 67q169 63 192 107z"/>
    <glyph glyph-name="zahisolated" unicode="ظ" horiz-adv-x="1433" arabic-form="isolated" d="M1413 363q0 27 -26 53t-65 47.5t-83 36t-80 17.5q-20 9 -59.5 -3t-88.5 -37t-102.5 -59t-102.5 -69t-88.5 -67t-59.5 -53q6 19 9 31t4.5 19t2 10.5t0.5 5.5q-4 84 -5.5 175t-3.5 178.5t-4.5 167t-3.5 139.5t-5 95.5t-5 36.5q17 19 27 33t13.5 29t2 34.5t-7.5 49.5 q-9 0 -22.5 11t-28.5 28t-29.5 36.5t-33.5 53.5q-22 -11 -34.5 -34t-23 -47t-12.5 -38q-7 -23 7.5 -64t52.5 -90q6 -92 6.5 -186.5t7 -202t12.5 -232t14 -276.5l-109 -65h-89q-48 0 -86.5 1t-78.5 3.5t-89 7t-126 3.5q1 -10 2 -14.5t2 -5.5q93 -56 147 -88t81.5 -48 t36 -19.5t11.5 -3.5q76 -11 259 -18q193 9 288 21t178.5 31.5t149 47t102.5 62.5q31 34 56 57.5t43 49.5t27.5 60t9.5 89zM1262 240q-48 -29 -77.5 -44t-52 -22.5t-43.5 -11t-51 -9.5q-6 -1 -18.5 -3t-49 -5t-107.5 -6.5t-194 -8.5q61 49 122 88t116.5 66t103 41.5 t82.5 14.5q30 -6 66 -19t64.5 -28t41.5 -29.5t-3 -23.5zM898 934l-100 -100l100 -100l100 100z"/>
    <glyph glyph-name="zahfinal" unicode="ظ" horiz-adv-x="1450" arabic-form="final" d="M1482 0v165h-194l-104 -14q17 12 39.5 42t36 57t19 47t5.5 26q0 29 -21.5 58.5t-55 54.5t-75.5 42t-82 22q-26 -1 -61 -10.5t-88 -35t-128 -69.5t-181 -114q15 87 21.5 171.5t6.5 184.5t-7 224.5t-19 291.5q3 9 9 21t12.5 24t11.5 23t6 19q2 11 -2.5 17.5t-13.5 13 t-21 16t-25 25.5q-10 13 -16.5 34t-10.5 40.5t-6.5 33.5t-3.5 14q-9 0 -21 -22t-23 -50.5t-19 -56t-9 -38.5q4 -33 7.5 -54.5t7 -34.5t7.5 -19.5t9 -10.5q9 -105 15.5 -186.5t11.5 -150.5t7.5 -130.5t3.5 -126.5t0.5 -138.5t-2.5 -166.5q-35 -30 -60 -48.5t-43 -30 t-32.5 -17t-28.5 -9.5l-293 7l-52 -10l50 -41l381 -120q68 2 109 3.5t64 3t33.5 2t18.5 0.5q71 1 120 2t91 1.5t84.5 1.5t99.5 2q8 0 31 1t53 2.5t63.5 3.5t63.5 3.5t76 3.5h124zM1150 246q-21 -15 -43.5 -29t-53 -26.5t-71.5 -23t-98.5 -19t-134.5 -14t-179 -7.5 q40 34 94 74t114 72.5t120.5 50.5t114.5 8q10 -2 31.5 -13.5t44 -26t40.5 -27.5t21 -19zM887 973l-100 -100l100 -100l100 100z"/>
    <glyph glyph-name="zahinitial" unicode="ظ" horiz-adv-x="1044" arabic-form="initial" d="M1011 385q0 -43 -16.5 -82t-45 -74t-65.5 -64t-79 -52t-86 -38.5t-85 -22.5q-52 -9 -105.5 -18t-110.5 -16t-119 -12t-131 -6h-187v166h212q22 20 44 39.5t44 39.5q6 19 5 70t-6.5 121.5t-9 152.5t-8 163.5t-3.5 154.5t-5 125q-4 9 -7.5 20.5t-7.5 28t-7.5 40.5t-7.5 59 q3 22 9 45.5t14.5 43.5t29.5 51q60 -77 75.5 -93.5t23.5 -27.5t10 -16t-2 -22t-11 -41.5t-16.5 -50.5t-19.5 -40q12 -130 15 -217.5t6 -152.5t2.5 -112t0 -87.5t-2.5 -81.5t-10 -93l24 13q64 52 109.5 89t80 62t61 39.5t52 22.5t53 11t64.5 4q12 0 33 -5t45.5 -13.5 t49.5 -21.5t45 -28.5t33 -34t13 -38.5zM873 282q-29 33 -53.5 51.5t-45.5 28t-39.5 12.5t-34.5 5q-35 0 -82 -19.5t-98 -50.5t-101 -69t-90 -75q75 2 146.5 11t134 22t114 27t87 26.5t52.5 21t10 9.5zM681 900l-100 -100l100 -100l100 100z"/>
    <glyph glyph-name="zahmedial" unicode="ظ" horiz-adv-x="1050" arabic-form="medial" d="M1076 0h-281q-60 -2 -94 -4t-59 -2t-51.5 3.5t-72.5 14.5q-51 4 -84.5 6t-58.5 2q-24 0 -41.5 -1t-33.5 -3l-124 -16h-200v166l163 4l99 96q-1 54 -6 124t-7 146.5t-5.5 154.5t-6.5 149t-5 129.5t-6.5 107t-5.5 45.5t-4.5 12.5t-9 42.5t-13.5 71q20 49 33 78t21.5 45 t13 21t7.5 5q6 -38 21 -64t48 -59q44 -44 47 -62q-2 -12 -7 -31t-14 -39t-22 -38t-29 -27q12 -96 16 -172.5t5 -141t0 -120.5t-4 -110t-2 -109t1 -118q79 70 137 119.5t100 83.5t71 54t50 30.5t36.5 13.5t30.5 3q28 0 63 -14.5t65.5 -38t51.5 -52.5t21 -59t-14 -70 t-39.5 -83t-61 -84t-78.5 -72q21 0 59 4.5t123 23.5l157 1v-166zM805 356q-25 44 -54.5 58t-61.5 14h-42q-24 0 -56.5 -12.5t-75.5 -41t-98 -76t-124 -116.5q159 0 320 67q169 63 192 107zM561 1132l-100 -100l100 -100l100 100z"/>
    <glyph glyph-name="ainisolated" unicode="ع" horiz-adv-x="1075" arabic-form="isolated" d="M1233 -872q0 10 -9 21q-65 -9 -115 -15t-95 -8.5t-90 -2t-99 5t-122.5 12.5t-160.5 20q-146 35 -234 92t-127 133.5t-34.5 170t43.5 201.5q46 80 77.5 135t55.5 92.5t43.5 61t42.5 42.5t52 36.5t72.5 42t104 60.5t145.5 91q3 -4 10.5 7.5t16 31t16.5 44t12.5 45.5t4 35 t-9.5 14q-2 0 -5 -1t-13.5 -6.5t-30 -16.5t-54.5 -31l-87.5 -50t-128.5 -74q-86 8 -147 33t-99.5 58t-55.5 68t-14 63q2 11 12 25t26.5 27.5t39.5 23.5t52 13q57 11 96.5 12.5t69 -4t52 -17t46.5 -26.5q10 -6 21.5 -5t19 7t8 17t-12.5 25q-33 36 -61 62t-60.5 42t-113.5 30 l-57 -2q-71 -28 -120.5 -77t-76 -108t-29.5 -122.5t20 -121t72.5 -103t126.5 -68.5q-45 -59 -88 -129.5t-78.5 -148.5t-61.5 -160t-45 -245q17 -157 50 -227q33 -73 88 -126t125 -87.5t151 -52t250 -24.5q170 20 248.5 41t146.5 51t118 67z"/>
    <glyph glyph-name="ainfinal" unicode="ع" horiz-adv-x="806" arabic-form="final" d="M1030 -948l279 121l13 35q-51 -5 -99.5 -9.5t-99.5 -9.5q-15 -2 -33 -3.5t-54 -3.5t-96.5 -4t-160.5 -5q-127 -5 -243.5 26t-204.5 96.5t-138 165.5t-44 233q-2 88 25 159.5t69 125.5t91.5 90t93.5 54q45 -35 75 -57t57 -35.5t56.5 -20t202.5 -10.5v165q-118 -2 -136 2 t-45 12t-46.5 18.5t-22.5 21.5q10 12 18.5 29.5t15.5 35.5t11 34.5t4 25.5q0 30 -15.5 55t-40.5 42t-57 26.5t-65 9.5q-32 0 -59 -2.5t-54.5 -10.5t-58 -24.5t-68.5 -44.5q-2 -6 -4.5 -15t-6.5 -26.5t-9 -44.5t-12 -69q36 5 60.5 5.5t42 -3t29.5 -11.5t23 -20 q-77 -66 -125 -133.5t-75 -140t-36.5 -151t-9.5 -166.5q0 -157 38.5 -276t121 -198.5t210.5 -120t307 -40.5q25 0 58 5t70 13.5t75 21t73 27.5z"/>
    <glyph glyph-name="aininitial" unicode="ع" horiz-adv-x="828" arabic-form="initial" d="M808 308q-3 -8 -7 -17t-11.5 -22t-19.5 -31.5t-30 -44.5q-38 -19 -93 -39.5t-116 -41t-122 -39t-110 -32.5t-80.5 -22.5t-32.5 -8.5q-12 -1 -21 -3t-18.5 -3.5t-23 -2.5t-134.5 -1v166q140 -2 158 2.5t32 12.5q-23 25 -36 47.5t-19.5 44.5t-8 43.5t-1.5 44.5 q37 112 94.5 187t123.5 105l42 11q54 -3 75 -5q16 -3 38.5 -14.5t48 -29.5t51 -41.5t46.5 -50.5q19 -21 24 -28.5t5 -12.5q-24 -10 -34.5 -6t-24.5 12q-21 12 -35.5 18.5t-25 10.5t-18 5.5t-14.5 3.5q-37 7 -84 2.5t-90.5 -15.5t-76 -26t-40.5 -28q-1 -17 9 -41t27.5 -50 t41.5 -51.5t52 -45t58 -30t59 -6.5q90 25 145 40.5t87 25t47.5 15t27.5 10.5q23 2 29 -3t6 -15z"/>
    <glyph glyph-name="ainmedial" unicode="ع" horiz-adv-x="705" arabic-form="medial" d="M718 0h-66l-67 6q-42 8 -75 26.5t-62 45.5t-65 61q-44 -35 -82 -61t-75 -43.5t-74 -26t-161 -8.5v166q104 0 137 2.5t68.5 8t68.5 15t53 23.5q-61 64 -92 64q-17 -1 -27 -3t-18.5 -4.5t-17.5 -6t-22 -7.5q11 48 20 81.5t22 57.5t32.5 40t51.5 28q48 10 68 13t32 3 q85 -6 140.5 -32t79 -50t23.5 -45t-9.5 -39.5t-23 -35t-29 -31t-28.5 -29.5q28 -18 47.5 -28.5t37.5 -16.5t37 -8t75 -1z"/>
    <glyph glyph-name="ghainisolated" unicode="غ" horiz-adv-x="1110" arabic-form="isolated" d="M1286 -872q0 10 -9 21q-65 -9 -115 -15t-95 -8.5t-90 -2t-99 5t-122.5 12.5t-160.5 20q-146 35 -234 92t-127 133.5t-34.5 170t43.5 201.5q46 80 77.5 135t55.5 92.5t43.5 61t42.5 42.5t52 36.5t72.5 42t104 60.5t145.5 91q3 -4 10.5 7.5t16 31t16.5 44t12.5 45.5t4 35 t-9.5 14q-2 0 -5 -1t-13.5 -6.5t-30 -16.5t-54.5 -31l-87.5 -50t-128.5 -74q-86 8 -147 33t-99.5 58t-55.5 68t-14 63q2 11 12 25t26.5 27.5t39.5 23.5t52 13q57 11 96.5 12.5t69 -4t52 -17t46.5 -26.5q10 -6 21.5 -5t19 7t8 17t-12.5 25q-33 36 -61 62t-60.5 42t-113.5 30 l-57 -2q-71 -28 -120.5 -77t-76 -108t-29.5 -122.5t20 -121t72.5 -103t126.5 -68.5q-45 -59 -88 -129.5t-78.5 -148.5t-61.5 -160t-45 -245q17 -157 50 -227q33 -73 88 -126t125 -87.5t151 -52t250 -24.5q170 20 248.5 41t146.5 51t118 67zM413 1140l-100 -100l100 -100 l100 100z"/>
    <glyph glyph-name="ghainfinal" unicode="غ" horiz-adv-x="728" arabic-form="final" d="M973 -948l279 121l13 35q-51 -5 -99.5 -9.5t-99.5 -9.5q-15 -2 -33 -3.5t-54 -3.5t-96.5 -4t-160.5 -5q-127 -5 -243.5 26t-204.5 96.5t-138 165.5t-44 233q-2 88 25 159.5t69 125.5t91.5 90t93.5 54q45 -35 75 -57t57 -35.5t56.5 -20t202.5 -10.5v165q-118 -2 -136 2 t-45 12t-46.5 18.5t-22.5 21.5q10 12 18.5 29.5t15.5 35.5t11 34.5t4 25.5q0 30 -15.5 55t-40.5 42t-57 26.5t-65 9.5q-32 0 -59 -2.5t-54.5 -10.5t-58 -24.5t-68.5 -44.5q-2 -6 -4.5 -15t-6.5 -26.5t-9 -44.5t-12 -69q36 5 60.5 5.5t42 -3t29.5 -11.5t23 -20 q-77 -66 -125 -133.5t-75 -140t-36.5 -151t-9.5 -166.5q0 -157 38.5 -276t121 -198.5t210.5 -120t307 -40.5q25 0 58 5t70 13.5t75 21t73 27.5zM325 903l-100 -100l100 -100l100 100z"/>
    <glyph glyph-name="ghaininitial" unicode="غ" horiz-adv-x="813" arabic-form="initial" d="M793 308q-3 -8 -7 -17t-11.5 -22t-19.5 -31.5t-30 -44.5q-38 -19 -93 -39.5t-116 -41t-122 -39t-110 -32.5t-80.5 -22.5t-32.5 -8.5q-12 -1 -21 -3t-18.5 -3.5t-23 -2.5t-134.5 -1v166q140 -2 158 2.5t32 12.5q-23 25 -36 47.5t-19.5 44.5t-8 43.5t-1.5 44.5 q37 112 94.5 187t123.5 105l42 11q54 -3 75 -5q16 -3 38.5 -14.5t48 -29.5t51 -41.5t46.5 -50.5q19 -21 24 -28.5t5 -12.5q-24 -10 -34.5 -6t-24.5 12q-21 12 -35.5 18.5t-25 10.5t-18 5.5t-14.5 3.5q-37 7 -84 2.5t-90.5 -15.5t-76 -26t-40.5 -28q-1 -17 9 -41t27.5 -50 t41.5 -51.5t52 -45t58 -30t59 -6.5q90 25 145 40.5t87 25t47.5 15t27.5 10.5q23 2 29 -3t6 -15zM309 1057l-100 -100l100 -100l100 100z"/>
    <glyph glyph-name="ghainmedial" unicode="غ" horiz-adv-x="700" arabic-form="medial" d="M711 0h-66l-67 6q-42 8 -75 26.5t-62 45.5t-65 61q-44 -35 -82 -61t-75 -43.5t-74 -26t-161 -8.5v166q104 0 137 2.5t68.5 8t68.5 15t53 23.5q-61 64 -92 64q-17 -1 -27 -3t-18.5 -4.5t-17.5 -6t-22 -7.5q11 48 20 81.5t22 57.5t32.5 40t51.5 28q48 10 68 13t32 3 q85 -6 140.5 -32t79 -50t23.5 -45t-9.5 -39.5t-23 -35t-29 -31t-28.5 -29.5q28 -18 47.5 -28.5t37.5 -16.5t37 -8t75 -1zM340 948l-100 -100l100 -100l100 100z"/>
    <glyph glyph-name="fehisolated" unicode="ف" horiz-adv-x="1413" arabic-form="isolated" d="M1393 378q0 -100 -60.5 -180.5t-172 -137t-270.5 -87t-355 -30.5q-104 0 -191 17.5t-153 52.5t-108 88t-55 124l-8 46q24 89 43.5 127t41 68t33.5 47h28q6 -2 1 -24.5t-13.5 -52.5t-16.5 -60.5t-8 -48.5q0 -51 29 -95.5t82 -77t128 -51.5t167 -19q213 6 362.5 33 t243 62.5t136.5 73t43 64.5q0 9 -11.5 31.5t-33.5 38.5q-44 -44 -89 -56.5t-82 2t-60 53.5t-23 98q0 21 7 49.5t19 58.5t27.5 60t33 53t35.5 37.5t34 14.5q17 0 39.5 -21t46.5 -54.5t47.5 -75t41.5 -84t29.5 -80.5t11.5 -64zM1202 520q0 4 0.5 8.5t-3 12.5t-12.5 20t-28 31 q-17 -3 -30 -15t-18 -44q-1 -10 3.5 -20.5t12.5 -19t18 -13t21 -1.5q4 0 10 3t12 8.5t10 13t4 16.5zM1239 998l-103 -107l-111 89l93 109z"/>
    <glyph glyph-name="fehfinal" unicode="ف" horiz-adv-x="1642" arabic-form="final" d="M1404 377q0 13 -9 30.5t-22.5 33.5t-28 27.5t-26.5 11.5t-29 -15.5t-33 -36t-28 -40t-14 -27.5q17 -24 29 -39t20 -23t13.5 -11t9.5 -3q19 0 39.5 7t37.5 19t28.5 29t12.5 37zM1421 901l-97 -117q-33 24 -54 39.5t-33 24.5t-17 13t-6 6q4 7 8.5 14t13 18.5t23.5 31.5 t40 54zM1214 94q-130 -44 -231 -70t-179 -40t-136.5 -18t-104.5 -4q-263 0 -403 83t-140 247q0 33 9.5 68t26 68t38.5 62t48 49q-13 -23 -19.5 -50t-9.5 -50.5t-3 -64t21.5 -88t77 -83.5t150 -57.5t241.5 -21.5q67 1 132 9t123.5 18t108.5 22t86.5 21.5t77.5 21.5q0 28 7 71 t20.5 91t34 95.5t46.5 85.5t57.5 62t68.5 24q40 0 68.5 -22t45 -58.5t21.5 -83t-2 -95.5t-25.5 -96.5t-48.5 -85.5q3 -10 14.5 -23.5t136.5 -14.5h94v-166h-212q-125 26 -160 46.5t-80 47.5z"/>
    <glyph glyph-name="fehinitial" unicode="ف" horiz-adv-x="572" arabic-form="initial" d="M376 903l-96 -116l-113 81q0 3 3.5 9t12.5 19.5t26 35.5t44 57zM364 411q2 11 0 29t-15 38q-20 12 -34 1.5t-28 -55.5q0 -6 4 -12.5t10 -12t12.5 -9t11.5 -3.5q11 0 24 4.5t15 19.5zM-19 166q206 0 265.5 5t101 14.5t66.5 23t39 31.5q-5 29 -12.5 34.5t-16.5 3.5 q-18 -15 -34.5 -24t-31 -13.5t-28 -5.5t-26.5 -1q-27 0 -52.5 11.5t-45 30t-31.5 42.5t-12 50q-3 18 4 48t20.5 63.5t31.5 67t37.5 60.5t38.5 43t34 15q35 -2 75.5 -39.5t76.5 -117.5q38 -85 45 -146.5t11 -131.5q-36 -114 -89 -160.5t-142 -55.5l-89 -14h-236v166z"/>
    <glyph glyph-name="fehmedial" unicode="ف" horiz-adv-x="688" arabic-form="medial" d="M456 370q0 23 -29 49q-19 7 -42.5 -6t-43.5 -32.5t-34.5 -40t-15.5 -27.5q14 -26 35 -44t32 -27q40 27 60.5 47t28.5 35t8.5 26t0.5 20zM509 887l-96 -117l-111 83q4 7 8.5 13.5t13 18.5t23 32t38.5 53zM-16 0v166q140 -1 176 13t40 29q14 92 38 164.5t52.5 124t60.5 81 t62 36.5q42 2 69.5 -22.5t50.5 -75.5q11 -52 15.5 -89t1.5 -72.5t-14.5 -76.5t-32.5 -102q0 -6 45 -11l161 1v-166q-123 0 -153 1t-46 1.5t-22 1.5t-10 2q-34 4 -60.5 11t-48 15t-40 17t-36.5 19q-27 -24 -46 -35t-114 -33h-149z"/>
    <glyph glyph-name="qafisolated" unicode="ق" horiz-adv-x="1077" arabic-form="isolated" d="M891 776q-29 -34 -47.5 -55.5t-29.5 -34t-16 -17.5t-7 -6q-12 7 -28.5 19.5t-31.5 24t-26.5 19.5t-15.5 6q-6 -1 -18 -15.5t-24 -32t-22 -32t-11 -15.5l-118 84q0 9 12 26t27 34.5t28 30.5t15 14q3 7 15.5 -0.5t28 -21t32.5 -28.5t30 -23l19 19q10 11 21 25.5t21.5 28.5 t19.5 24t16 12zM1055 -11l2 -78q-17 -111 -78 -179t-121.5 -112t-130 -74t-144 -46t-146.5 -16q-88 0 -164 24t-132.5 67.5t-88.5 105t-32 136.5q0 30 11 74.5t31 93t47.5 95t59.5 80.5q11 -9 4 -29t-18.5 -56.5t-22 -92t-6.5 -134.5q31 -97 114.5 -149.5t213.5 -52.5 q43 0 98.5 8.5t113 26t112.5 42.5t98 58.5t69.5 74.5t26.5 89q0 30 -10 58t-34 57q-19 -22 -45.5 -38.5t-52 -27t-46 -13.5t-27.5 3q-32 0 -59.5 15t-47.5 41t-32 62.5t-12 79.5q13 86 31 147.5t39 101t43.5 58t44.5 18.5q34 0 65.5 -18t62 -59t60.5 -108t62 -164 q21 -66 41 -169zM844 204q0 16 -9 31.5t-22.5 29.5t-28.5 26t-28 21q-21 -14 -35.5 -36.5t-17.5 -39.5q0 -12 5.5 -27.5t30.5 -37.5q51 -3 78 5.5t27 27.5z"/>
    <glyph glyph-name="qaffinal" unicode="ق" horiz-adv-x="1379" arabic-form="final" d="M907 175q15 35 36 47t47 -4q14 -11 23 -54q-7 -8 -9 -12.5t-5 -7t-10.5 -3.5t-24.5 -1q-15 0 -27.5 5.5t-29.5 29.5zM1130 732l-135 104l-96 -104l-112 68l-105 -131l142 -98q2 1 6.5 5t14 14t25.5 27t41 44l100 -61zM1392 166h-183q-14 50 -44 99.5t-66 88.5t-73 63 t-64 24q-30 0 -54.5 -17t-44 -44t-34 -62t-24 -71t-14 -70t-4.5 -59q0 -92 48.5 -131.5t135.5 -39.5q92 0 144 37q7 -4 10.5 -10.5t4.5 -18.5t0.5 -31.5t-0.5 -49.5t-30 -59t-80 -55.5t-115 -49.5t-135 -40t-140.5 -26.5t-130.5 -9.5q-80 0 -146.5 18.5t-114 53.5t-74 85.5 t-26.5 114.5q0 19 2 41.5t11.5 53.5t30 73t57.5 101q0 30 -7.5 48t-36.5 10q-35 -51 -62 -99t-49 -99q-11 -26 -21.5 -52t-21.5 -53q-21 -54 -21 -129q0 -77 38.5 -141t103.5 -110t239 -96l98 1q70 0 145.5 17t148 45.5t139 64t120 72.5t90 72t49.5 61q3 7 6.5 19.5t8 36.5 t10 61.5t11.5 95.5h165v166z"/>
    <glyph glyph-name="qafinitial" unicode="ق" horiz-adv-x="611" arabic-form="initial" d="M363 464q-3 40 -18.5 55t-45.5 24q-19 -6 -24.5 -20t-10.5 -28q0 -13 11.5 -28.5t28.5 -15.5q15 3 29.5 6.5t29.5 6.5zM531 1045q3 2 -5 -7.5t-21.5 -25t-30.5 -33.5t-31.5 -33.5t-23 -24.5t-6.5 -6l-98 60q-42 -44 -64.5 -66.5l-24.5 -24.5l-142 100q96 128 107 131 l110 -70l97 106q130 -99 133 -106zM-13 166l201 1q74 2 93 3t25 1.5t9 0.5q93 21 131 47.5t38 63.5q0 6 -1 12t-5 14t-12 19.5t-21 28.5q-18 -33 -38 -51t-40.5 -27t-39.5 -11t-36 -2q-32 0 -58 14.5t-45 38.5t-29.5 55t-10.5 65q0 42 17.5 96.5t44.5 103t59.5 82t61.5 33.5 q13 0 34.5 -15.5t46.5 -45t52 -72t51 -95.5q50 -111 50 -205q0 -67 -12.5 -118.5t-40.5 -90t-72.5 -63.5t-108.5 -39l-144 -10h-200v166z"/>
    <glyph glyph-name="qafmedial" unicode="ق" horiz-adv-x="678" arabic-form="medial" d="M429 370q0 23 -29 49q-19 7 -42.5 -6t-43.5 -32.5t-34.5 -40t-15.5 -27.5q14 -26 35 -44t32 -27q40 27 60.5 47t28.5 35t8.5 26t0.5 20zM-18 0v166l95 -1q57 0 74.5 14t21.5 29q14 92 38 164.5t52.5 124t60.5 81t62 36.5q42 2 69.5 -22.5t50.5 -75.5q11 -52 15.5 -89 t1.5 -72.5t-14.5 -76.5t-32.5 -102q0 -6 19 -10h197v-166q-133 0 -163 1t-46 1.5t-22 1.5t-10 2q-34 4 -60.5 11t-48 15t-40 17t-36.5 19q-27 -24 -46 -35t-42 -19l-84 -14h-112zM484 979q-29 -34 -47.5 -55.5t-29.5 -34t-16 -17.5t-7 -6q-12 7 -28.5 19.5t-31.5 24 t-26.5 19.5t-15.5 6q-6 -1 -18 -15.5t-24 -32t-22 -32t-11 -15.5l-118 84q0 9 12 26t27 34.5t28 30.5t15 14q3 7 15.5 -0.5t28 -21t32.5 -28.5t30 -23q18 18 32.5 36.5t26.5 34t21.5 26t16.5 12.5z"/>
    <glyph glyph-name="kafisolated" unicode="ك" horiz-adv-x="1207" arabic-form="isolated" d="M502 2q264 22 348.5 49t151.5 69t105.5 110.5t58.5 125.5t21 97l-1 101q-3 22 -6 60t-7 93q-6 109 -3.5 264t-5.5 353q-26 -15 -45 -31.5t-36.5 -39.5t-18.5 -49l27 -727q0 -37 -16 -84.5t-54 -99.5t-110 -82.5t-160 -42.5t-182.5 -11t-179.5 8q-60 7 -108 25t-86 47 q-26 20 -47 47t-31.5 63.5t-8 83t22.5 106.5q1 10 10 28.5t14.5 33.5t2.5 20t-25 -11q-29 -23 -49.5 -58t-34 -72.5t-20.5 -73t-9 -60.5q0 -84 23.5 -149t84.5 -124.5t226 -70.5zM791 676q0 45 -48 60q-24 3 -48 6.5t-42.5 9.5t-28 14.5t-2.5 21.5q14 23 29 46.5t22.5 40.5 t7.5 20q0 10 1 15q-27 -20 -50.5 -46t-40 -53.5t-26 -55t-9.5 -49.5q0 -15 4.5 -28.5t17.5 -28t37 -32.5t64 -42q7 0 -6 -6.5t-38 -17.5t-58.5 -25.5t-66.5 -31t-61.5 -33.5t-44.5 -33l240 20q26 21 46 39t37 42.5t32 59t32 87.5z"/>
    <glyph glyph-name="arabickaffinal" unicode="ك" horiz-adv-x="1304" arabic-form="final" d="M1339 0q-90 6 -129.5 57.5t-58 98.5t-27.5 132q-23 -85 -39 -118.5t-34.5 -60.5t-48.5 -45.5t-82 -36.5q-85 -29 -187.5 -34.5t-237.5 -10.5l-148 11q-76 11 -137.5 34.5t-104 67.5t-60 101t-25.5 158q3 25 10.5 60.5t21.5 72t35 71t51 58.5q22 15 25 9.5t-3 -20 t-15 -32.5t-10 -28q-21 -60 -24.5 -107t6 -83.5t29.5 -63.5t47 -47q75 -60 192 -76q86 -19 180.5 -17t183 2.5t160 12.5t124.5 95q26 23 38 75.5t12 89.5l-14 667q-1 18 8.5 34t23.5 29.5t29.5 24.5t43.5 26q-3 -197 0 -306q2 -55 3.5 -108t3.5 -105q4 -103 9 -162t9 -76 q6 -57 14.5 -109t25.5 -94q17 -52 39.5 -71.5t61.5 -10.5zM797 671q-18 -53 -34 -87t-33 -58t-37 -42t-47 -38l-240 -16q16 16 45 32.5t62 32.5t66.5 30t59.5 24.5t39 16.5t6 6q-40 25 -64 43t-36.5 33t-16.5 28.5t-4 28.5q1 24 11 50.5t27.5 53.5t41 52t50.5 46 q-1 -1 -2 -29q-15 -23 -30.5 -46t-29.5 -46q-8 -12 1 -21t28 -15.5t43.5 -10.5t47.5 -7q47 -16 46 -61z"/>
    <glyph glyph-name="kafinitial" unicode="ك" horiz-adv-x="1303" arabic-form="initial" d="M-34 166v-166h380q152 0 260 116q40 43 64.5 74t37 55t16.5 44t4 43q0 131 -114 263q-36 41 -83.5 81.5t-99 77t-104.5 66.5t-99 49q-8 1 22.5 26.5t85.5 66t129 93t154 107.5t160 108.5t147 96.5t115 71t65 33q91 61 142 124q17 29 23.5 46.5t11.5 40.5q0 1 -0.5 9.5 t-1 18.5t-2 19t-4.5 12q-10 -6 -60.5 -38.5t-130.5 -84.5t-185 -120t-223.5 -145.5t-245.5 -160.5t-252 -165q-25 -28 -37.5 -51.5t-16.5 -72t-4 -79.5q10 -98 100 -172q11 3 22.5 11t16.5 5q37 -9 80 -33t86 -55.5t83.5 -66.5t71.5 -66.5t49.5 -55.5t18.5 -33 q0 -22 -14.5 -45t-38.5 -44.5t-55.5 -40t-65 -32.5t-67 -22t-61.5 -8h-380z"/>
    <glyph glyph-name="kafmedial" unicode="ك" horiz-adv-x="1294" arabic-form="medial" d="M1363 1717q0 32 -25 35q-32 -21 -92.5 -61.5t-138.5 -93.5t-169.5 -115.5t-186 -127.5t-186.5 -129t-172 -120.5t-143 -101.5t-98 -72q-22 -17 -28.5 -34.5t-6.5 -48.5l4 -56q46 -38 86 -67.5t84 -61t96 -70.5t123 -97q33 -28 54.5 -64.5t29.5 -100.5q-13 -44 -38 -75 t-60 -51t-171 -40h-355v-165h355q175 38 227 77q42 31 69.5 100.5t37.5 172.5q0 29 -11 60t-16 59q62 -55 108.5 -96t84.5 -75t72 -63t71 -59t80 -64t72.5 -59t81.5 -39t104 -15v162q-86 29 -119 56t-89 69.5t-135.5 106t-188.5 153.5q-98 81 -188 138.5t-158.5 96.5 t-109.5 61t-41 33q0 3 5 6q157 106 273 184.5t200.5 136.5t144 99t104 71.5t79 54.5t70.5 48t77.5 52t100.5 67q12 33 18.5 54.5t9.5 35.5t3.5 21t0.5 12z"/>
    <glyph glyph-name="lamisolated" unicode="ل" horiz-adv-x="985" arabic-form="isolated" d="M927 49q0 -106 -43 -192t-118.5 -146.5t-178.5 -93.5t-223 -33q-66 0 -128 21t-110 59.5t-77 91t-29 115.5q0 32 12 72.5t29.5 82.5t38 81t37.5 69q9 15 21 26.5t23.5 18.5t21 9.5t14.5 -0.5q10 -4 10 -16q0 -2 -0.5 -6t-1.5 -9q-28 -36 -46 -69t-30 -64.5t-19 -62.5 t-13 -64q0 -32 26 -66t68.5 -63t97 -47.5t111.5 -18.5q20 0 48.5 5t61 15t67.5 24t68 32q69 35 108 81.5t27 103.5q1 9 1.5 29.5t-0.5 63.5q0 22 -2 246.5t-6 652.5q0 9 3.5 31.5t9.5 76.5q4 29 7.5 47t5.5 26q6 18 31 44q5 -9 4 -19q-1 -15 7.5 -38t19.5 -49 q5 -12 8.5 -19.5t4.5 -9.5q2 -5 11 -13.5t33 -26.5q27 -17 27 -56q0 -7 -1.5 -16.5t-7.5 -27.5t-16.5 -46.5t-28.5 -74.5z"/>
    <glyph glyph-name="lamfinal" unicode="ل" horiz-adv-x="1167" arabic-form="final" d="M1214 0q-144 0 -181 2.5t-52 8t-28 15t-48 33.5q3 -57 -4 -93t-14.5 -66.5t-20.5 -59t-42 -64t-79 -72.5t-131 -74q-23 -11 -50.5 -19.5t-55 -14.5t-54 -9t-47.5 -3q-82 0 -152.5 25t-122.5 71t-82 111.5t-30 147.5q0 16 8 53t31 85t64 102.5t106 105.5q12 -3 12 -15 t-17 -45t-37.5 -74t-37.5 -84t-17 -75q0 -52 22.5 -97t62.5 -78t94.5 -52t117.5 -19q79 0 147 12.5t118.5 36t79 56.5t28.5 74q0 262 -16 520.5t-36 520.5q12 52 21.5 86.5t18 56.5t17.5 35.5t19 24.5h29q5 -122 13 -236.5t13 -216t11 -187t13.5 -149.5t21 -103.5 t26.5 -49.5q11 -19 35.5 -34.5t225.5 -26.5v-166z"/>
    <glyph glyph-name="laminitial" unicode="ل" horiz-adv-x="405" arabic-form="initial" d="M262.5 38.5q-38.5 -27.5 -81.5 -39.5l-233 1l-1 165h203q15 1 26 2t36.5 14.5t29.5 68.5t-1 181t-7.5 195.5t-5 129.5t-4 104.5t-1.5 61.5v11q-2 17 -8 35.5t-20 47.5q19 85 35.5 129.5t45.5 50.5l109 -136q-2 -24 -4.5 -35.5t-7.5 -20.5l-52 -93q2 -30 4 -56t5.5 -87 t6.5 -339.5t-16.5 -320.5t-58 -69.5z"/>
    <glyph glyph-name="lammedial" unicode="ل" horiz-adv-x="584" arabic-form="medial" d="M632 0h-136q-86 5 -120.5 66t-54.5 182q-2 -33 -15 -90t-37 -86.5t-63 -48t-88 -23.5h-153l1 165h149q69 7 101 28t38 63q12 57 16 107.5t4 92.5v77q0 8 -1 13q0 49 -2 121.5t-5 172.5q-2 97 -3 252q-1 19 10.5 42t28.5 40t35 22t31 8q0 -483 1 -488q1 -42 1.5 -76.5 t1.5 -62.5q2 -42 3.5 -71t3.5 -49.5t9.5 -82t14 -80.5t12 -36t16.5 -36q14 -25 35.5 -40t74.5 -17h90z"/>
    <glyph glyph-name="meemisolated" unicode="م" horiz-adv-x="659" arabic-form="isolated" d="M556 56q-11 -14 -29 -14q-51 7 -91 8.5t-72 -1.5t-57.5 -10.5t-48.5 -18.5q-35 -17 -59 -31.5t-40.5 -30t-26 -34t-14.5 -43.5l58 -722q0 -30 -1 -48.5t-8 -32t-21 -26t-39 -29.5l-55 783q0 38 1.5 64.5t6 48t13.5 43.5t24 51q4 8 11 18.5t19 26.5t31 38.5t48 53.5 q6 52 21 104.5t45 106.5q20 40 46 53t51 15q17 -1 40.5 -16t48.5 -50q47 -61 73.5 -95.5t40 -52.5t17 -23.5t4.5 -8.5q-6 -55 -11.5 -73t-12.5 -32.5t-13 -21.5zM416 188q9 7 -0.5 20.5t-24 27t-28.5 24t-15 10.5q-8 0 -16 -2t-18.5 -11.5t-23.5 -29t-31 -53.5z"/>
    <glyph glyph-name="meemfinal" unicode="م" horiz-adv-x="810" arabic-form="final" d="M833 0h-97q-63 2 -73.5 5.5t-18.5 8.5q-18 -49 -29.5 -78.5t-18.5 -46t-11.5 -22t-7.5 -6.5q-131 36 -172 198q-15 67 -59 67q-35 0 -60.5 -1t-44 -4.5t-31.5 -9.5t-23 -15q-20 -13 -35 -31t-23.5 -48.5t-9.5 -77.5t-3 -118q4 -132 5.5 -221.5t5.5 -152.5t4.5 -107.5 t2.5 -87t4.5 -91t-5.5 -119.5q-12 0 -20.5 10.5t-14.5 26t-9.5 32.5t-5.5 30q-14 59 -19 133.5t-8 167.5t-7.5 205.5t-6.5 246.5q0 57 10.5 111t27 98.5t35 76.5t35.5 47q20 20 57 32.5t73 19.5t62 9.5t35 2.5t16.5 -0.5t11.5 -1.5l3 3t6 7t11 15.5t18 27.5q38 -51 72 -87 t77 -56q27 -11 44.5 -17.5t29.5 -10t72 -6.5l95 1v-166z"/>
    <glyph glyph-name="meeminitial" unicode="م" horiz-adv-x="673" arabic-form="initial" d="M480 314q-8 11 -28 11q-30 0 -41 -20q-3 -9 -6.5 -17.5t-6.5 -17.5q22 -12 38 -18t27 -7.5t18 0t13 3.5q3 17 0 33t-14 33zM108 0h-119v166h114q52 -1 130 64l137 180q38 51 76.5 73.5t70.5 23.5q11 0 24 -17t26 -44t24.5 -59.5t20 -63.5t14 -56.5t5.5 -38.5 q0 -12 -7 -40t-19 -57t-29 -51t-38 -22q-79 0 -142.5 23t-129.5 58q-42 -54 -68.5 -86.5t-41.5 -39.5t-48 -13z"/>
    <glyph glyph-name="meemmedial" unicode="م" horiz-adv-x="784" arabic-form="medial" d="M488 194q0 9 -6.5 20.5t-17.5 23.5t-25 22.5t-29 17.5q-18 -8 -28 -14t-15.5 -11t-7 -9.5t-2.5 -9.5q0 -12 13 -22q33 -13 54 -19t34 -6.5t19 2t11 5.5zM803 166v-166h-58q-33 4 -51.5 9t-35 12.5t-27.5 18.5q-17 -23 -29.5 -38t-21.5 -23.5t-15.5 -12t-11.5 -3.5 q-47 1 -86.5 9.5t-81.5 31.5q-37 20 -73 41t-73 41q-39 -40 -82 -63.5t-92 -22.5h-80v166l81 -1q30 1 57 11.5t46.5 22.5t29.5 21.5t8 6.5q55 71 92.5 111t62 59.5t40 23.5t26.5 10q20 -6 39.5 -18.5t46.5 -47.5q52 -62 87 -100.5t62 -60.5t73 -38h67z"/>
    <glyph glyph-name="noonisolated" unicode="ن" horiz-adv-x="957" arabic-form="isolated" d="M937 -41q0 -72 -22 -130t-65.5 -115t-132 -102.5t-209.5 -61.5l-71 -1q-122 14 -185.5 33t-115 53t-84 84.5t-32.5 121.5q0 38 10.5 87.5t30 100.5t47.5 99.5t63 83.5q15 -12 21 -19t7.5 -12t0 -10t-1.5 -12q-30 -54 -44.5 -90t-20 -59.5t-5 -37t0.5 -21.5 q0 -45 19 -85.5t54 -72t86 -50t114 -18.5q51 -5 90.5 1.5t78.5 15.5t85.5 26.5t76.5 31.5q57 26 87 53.5t29 63.5v23q-7 27 -14.5 50t-22.5 56t-40.5 83t-68.5 133l69 134q15 -18 31.5 -40t33.5 -52q8 -14 17 -32t19 -39q10 -20 22 -59t27 -99zM514 465l-103 -107l-111 89 l93 109z"/>
    <glyph glyph-name="noonfinal" unicode="ن" horiz-adv-x="1134" arabic-form="final" d="M486 501l-115 113l-96 -130l111 -114zM1039 165q-22 0 -45 16t-43 41q-37 64 -62 104.5t-41.5 64.5t-27 35.5t-18.5 17.5q-12 -17 -25.5 -44.5t-24.5 -53t-17 -43.5t-4 -16l118 -200q18 -44 24 -77.5t6 -73.5t-21.5 -73.5t-56.5 -60t-79.5 -47t-90.5 -34t-89.5 -20 t-75.5 -6.5q-60 0 -123 16.5t-113.5 48.5t-81 80t-25.5 110q7 40 20 74.5t26.5 62.5t25 50.5t15.5 39.5q-3 10 -8 12q-12 1 -26.5 -8.5t-34.5 -38.5t-46.5 -81.5t-62.5 -136.5q-12 -45 -12 -73q0 -76 28.5 -138.5t81 -107.5t126.5 -70t165 -25q51 0 109 11.5t114.5 35.5 t109 60t94.5 86t69 113t33 141l-2 46q1 4 5 3.5t18.5 -1t95.5 -5.5h93v165h-121z"/>
    <glyph glyph-name="nooninitial" unicode="ن" horiz-adv-x="408" arabic-form="initial" d="M111 966l-100 -100l100 -100l100 100zM-16 0v166h222q56 13 76 29t20 39q0 24 -36 75l-82 104q4 40 11 76.5t13.5 65t11.5 46t6 19.5q48 -47 79 -92.5t49.5 -89.5t26 -86t7.5 -82q0 -85 -36.5 -144t-94.5 -96q-14 -10 -31 -16.5t-46 -11.5z"/>
    <glyph glyph-name="noonmedial" unicode="ن" horiz-adv-x="643" arabic-form="medial" d="M656 0v165h-121q-61 11 -105 44t-77 102q-26 -28 -49.5 -54t-53 -46.5t-68.5 -32.5t-96 -13h-96l-1 -165h97q32 3 58 7.5t53 13.5t57.5 23.5t72.5 37.5q11 -11 30.5 -25t46.5 -27t61 -21.5t70 -8.5h121zM160 802l-100 -100l100 -100l100 100z"/>
    <glyph glyph-name="hehisolated" unicode="ه" horiz-adv-x="448" arabic-form="isolated" d="M416 274q0 -38 -8 -76.5t-24 -74t-40.5 -66.5t-56.5 -53q-32 -16 -54.5 -23.5t-47.5 -9.5t-31 -2q-23 0 -45 12.5t-39 35t-27 52t-10 64.5q0 60 60 209q59 146 104 201q64 -33 106 -62.5t67 -61t35.5 -67t10.5 -78.5zM295 195q0 20 -9.5 40t-25.5 37t-38.5 29.5 t-47.5 17.5q-5 -5 -9.5 -11.5t-10 -17.5t-12 -29t-15.5 -46q0 -5 1.5 -11.5t7.5 -13.5t17.5 -13t31.5 -9q52 0 75 5t35 22z"/>
    <glyph glyph-name="hehfinal" unicode="ه" horiz-adv-x="615" arabic-form="final" d="M627 0q-69 0 -87.5 2t-50.5 3.5t-70 30.5q-31 28 -48.5 78.5t-26.5 157.5q-72 -82 -99.5 -96t-54.5 -18t-57 -4q-113 0 -113 71q1 39 15 79.5t47 81.5t87.5 82t157.5 81q8 165 52 195q24 -8 21 -52q0 -66 3.5 -135t8 -130t15.5 -134t29.5 -97.5t60 -27t110.5 -2.5v-166z M327 487q-113 -76 -140.5 -114.5t-6.5 -39.5t43 -1q23 0 39.5 2.5t33.5 9t36 16.5z"/>
    <glyph glyph-name="hehinitial" unicode="ه" horiz-adv-x="700" arabic-form="initial" d="M680 192q-5 -44 -35 -74q-16 -21 -26.5 -33.5t-18 -19t-12.5 -9t-10 -3.5q-13 -1 -25.5 -2t-25.5 -2q-62 8 -101 16.5t-63 16t-36.5 14.5t-21.5 12q-45 -35 -76.5 -54.5t-53 -29.5t-35 -13t-66.5 -11h-88v166q91 0 108 2.5t35 7t34.5 10.5t25.5 12q-3 13 -24 56 q-18 32 -15.5 48t8.5 27l69 113l14 29q-14 11 -14 54q15 67 40.5 98.5t46.5 31.5q24 -3 52.5 -18t57.5 -38.5t56.5 -53t51.5 -62.5q50 -74 79.5 -122.5t44.5 -80.5t19.5 -51.5t4.5 -36.5zM592 167q8 6 -1.5 26t-28 46t-42 54t-44 50t-34.5 35t-13 9q-1 -29 -2 -50t-4 -40.5 t-9 -39.5t-18 -48q53 -17 84.5 -27t49.5 -15t26 -7t13 -2q21 0 23 9zM367 317q0 32 -12.5 60t-42.5 37q-16 -3 -27 -14q-22 -20 -36 -35t-23 -27t-13.5 -22.5t-6.5 -20.5q22 -33 47 -42.5t54 -8.5q15 9 25 16t16.5 15t11 18t7.5 24z"/>
    <glyph glyph-name="hehmedial" unicode="ه" horiz-adv-x="652" arabic-form="medial" d="M663 0l-199 -2q28 -25 44 -59.5t16 -94.5q0 -115 -36 -181.5t-99 -66.5q-55 6 -97.5 31t-71 63.5t-43 88t-13.5 105.5q0 32 0.5 52t1.5 32.5t2 19.5t2 13q-37 0 -108 -0.5t-76 -1.5v167l152 -1q67 1 94 34q27 73 53 126t52 93.5t53.5 73t57.5 65.5l12 7q17 -6 23 -16.5 t9 -26t3 -34.5q1 -51 -10 -109t-27 -107.5t-51 -105.5l256 1v-166zM435 369q-2 24 -5 31t-8 7q-11 0 -34.5 -25t-48 -59.5t-44 -70t-23.5 -57.5q13 2 27.5 7.5t33 18.5t42 35t53.5 57zM453 -212q0 12 -12.5 27.5t-31 31t-39.5 29t-39 21.5l-98 42q0 -54 34 -100t114 -75 q36 -3 54 5t18 19z"/>
    <glyph glyph-name="wawisolated" unicode="و" horiz-adv-x="836" arabic-form="isolated" d="M816 240q0 -66 -15.5 -141t-44.5 -149.5t-70.5 -142.5t-94 -120.5t-114.5 -83.5t-131 -31q-34 0 -108.5 10t-195.5 34q-17 2 -22 26l11 11q77 7 133 12t99 10.5t76 13.5t63 21t60 33t68 50q60 48 111 122.5t93 173.5q1 13 1 22q0 10 -1.5 20t-5.5 22l-10 30 q-13 -38 -24 -62.5t-23 -39t-27 -20t-36 -5.5q-61 0 -93 30.5t-41.5 77t0 102t32 105.5t54.5 87t67 47q31 0 64.5 -26.5t61.5 -66t45.5 -86t17.5 -86.5zM654 263q-9 24 -23 30.5t-42 6.5l-18 -37q0 -11 26 -22l25 -6q8 0 16 8z"/>
    <glyph glyph-name="wawfinal" unicode="و" horiz-adv-x="890" arabic-form="final" d="M636 188q-5 12 -9.5 21.5t-11 14.5t-16.5 5.5t-26 -5.5l-18 -36q0 -5 5 -13t18 -13q22 -5 30 -1t12 8zM772 0q-8 -37 -18.5 -76.5t-24.5 -82.5q-43 -73 -85 -133t-88.5 -102.5t-100 -65.5t-118.5 -23q-33 0 -105.5 10t-190.5 33q-16 2 -21 25l11 11q74 7 130 13 t98.5 13.5t75 16.5t61.5 22t57 30t62 41q59 41 105.5 110t85.5 158q-29 -3 -50.5 -3.5t-37.5 0t-26.5 2t-18.5 1.5q-26 0 -49 10t-39.5 27.5t-26 41t-9.5 50.5q4 46 18.5 92t35.5 86t48.5 71t58.5 46q30 0 62.5 -25.5t59.5 -64.5t44 -84t17 -84h117v-166h-138z"/>
    <glyph glyph-name="alefmaksuraisolated" unicode="ى" horiz-adv-x="1178" arabic-form="isolated" d="M1158 614q0 -80 -15.5 -116.5t-32.5 -36.5q-3 0 -8.5 6.5t-13.5 14.5t-17.5 16t-18.5 11q-12 19 -41 11t-66 -33t-76 -62t-72 -77t-54 -77.5t-21 -63.5q0 -24 16 -37l231 -33q42 -15 67 -29t38.5 -27.5t17.5 -27t4 -29.5q0 -66 -33.5 -127t-88.5 -114.5t-126 -97 t-146.5 -75t-150 -48.5t-135.5 -17q-91 0 -164.5 31t-125 85t-79 127.5t-27.5 158.5q0 6 6 36t16 72t23 90t27 88t29 67t28 28q14 -1 16 -7t-3 -19.5t-15 -35t-19.5 -53t-16.5 -75t-7 -99.5q0 -58 20.5 -113.5t65 -98.5t114.5 -69.5t169 -26.5q38 0 87.5 9t103 25.5 t106.5 39t98.5 49t79 56.5t48.5 61q-24 8 -58 13.5t-72 10.5t-75.5 12t-69 17.5t-52.5 27t-26 40.5q-1 62 16.5 130.5t47.5 136t71 129.5t88.5 112t99 84t103.5 45q45 -21 67 -49t22 -66z"/>
    <glyph glyph-name="alefmaksurafinal" unicode="ى" horiz-adv-x="1053" arabic-form="final" d="M1043 -274q-28 -56 -72.5 -103.5t-100.5 -86t-120.5 -68t-132.5 -49.5t-137 -30t-133 -10q-47 0 -95 14.5t-89.5 41.5t-74 65.5t-48.5 86.5q-20 62 -20 151q0 30 5.5 67t16 75t25 75.5t32 68t37.5 52t41 28.5l3 -13q0 -10 -8 -24.5t-18.5 -34.5t-21 -45.5t-16.5 -57.5 l-14 -72q-2 -64 8 -110.5t31 -79.5t52 -56t72 -41q54 -22 117.5 -29t131 -0.5t135 26t129.5 50.5t115.5 73.5t93.5 93.5q4 10 -14.5 18t-50 16t-72.5 16.5t-81.5 19t-77 23t-59.5 29.5q0 24 51 134q27 19 69 41t88.5 41t91.5 31.5t129 12.5v-166q-17 0 -78.5 -6t-113.5 -19 q42 -14 82 -28.5t82 -28.5q20 -30 34 -82q-2 -47 -9 -68.5t-15 -41.5z"/>
    <glyph glyph-name="yehisolated" unicode="ي" horiz-adv-x="1178" arabic-form="isolated" d="M1158 614q0 -80 -15.5 -116.5t-32.5 -36.5q-3 0 -8.5 6.5t-13.5 14.5t-17.5 16t-18.5 11q-12 19 -41 11t-66 -33t-76 -62t-72 -77t-54 -77.5t-21 -63.5q0 -24 16 -37l231 -33q42 -15 67 -29t38.5 -27.5t17.5 -27t4 -29.5q0 -66 -33.5 -127t-88.5 -114.5t-126 -97 t-146.5 -75t-150 -48.5t-135.5 -17q-91 0 -164.5 31t-125 85t-79 127.5t-27.5 158.5q0 6 6 36t16 72t23 90t27 88t29 67t28 28q14 -1 16 -7t-3 -19.5t-15 -35t-19.5 -53t-16.5 -75t-7 -99.5q0 -58 20.5 -113.5t65 -98.5t114.5 -69.5t169 -26.5q38 0 87.5 9t103 25.5 t106.5 39t98.5 49t79 56.5t48.5 61q-24 8 -58 13.5t-72 10.5t-75.5 12t-69 17.5t-52.5 27t-26 40.5q-1 62 16.5 130.5t47.5 136t71 129.5t88.5 112t99 84t103.5 45q45 -21 67 -49t22 -66zM692 -573l-100 -100l100 -100l100 100zM392 -573l-100 -100l100 -100l100 100z"/>
    <glyph glyph-name="yehfinal" unicode="ي" horiz-adv-x="1053" arabic-form="final" d="M1043 -274q-28 -56 -72.5 -103.5t-100.5 -86t-120.5 -68t-132.5 -49.5t-137 -30t-133 -10q-47 0 -95 14.5t-89.5 41.5t-74 65.5t-48.5 86.5q-20 62 -20 151q0 30 5.5 67t16 75t25 75.5t32 68t37.5 52t41 28.5l3 -13q0 -10 -8 -24.5t-18.5 -34.5t-21 -45.5t-16.5 -57.5 l-14 -72q-2 -64 8 -110.5t31 -79.5t52 -56t72 -41q54 -22 117.5 -29t131 -0.5t135 26t129.5 50.5t115.5 73.5t93.5 93.5q4 10 -14.5 18t-50 16t-72.5 16.5t-81.5 19t-77 23t-59.5 29.5q0 24 51 134q27 19 69 41t88.5 41t91.5 31.5t129 12.5v-166q-17 0 -78.5 -6t-113.5 -19 q42 -14 82 -28.5t82 -28.5q20 -30 34 -82q-2 -47 -9 -68.5t-15 -41.5zM589 -743l-100 -100l100 -100l100 100zM289 -743l-100 -100l100 -100l100 100z"/>
    <glyph glyph-name="yehinitial" unicode="ي" horiz-adv-x="526" arabic-form="initial" d="M-16 0v166h222q56 13 76 29t20 39q0 24 -36 75l-82 104q4 40 11 76.5t13.5 65t11.5 46t6 19.5q48 -47 79 -92.5t49.5 -89.5t26 -86t7.5 -82q0 -85 -36.5 -144t-94.5 -96q-14 -10 -31 -16.5t-46 -11.5zM406 -148l-100 -100l100 -100l100 100zM106 -148l-100 -100l100 -100 l100 100z"/>
    <glyph glyph-name="yehmedial" unicode="ي" horiz-adv-x="638" arabic-form="medial" d="M652 0v165h-121q-61 11 -105 44t-77 102q-26 -28 -49.5 -54t-53 -46.5t-68.5 -32.5t-96 -13h-96l-1 -165h97q32 3 58 7.5t53 13.5t57.5 23.5t72.5 37.5q11 -11 30.5 -25t46.5 -27t61 -21.5t70 -8.5h121zM422 -245l-100 -100l100 -100l100 100zM122 -245l-100 -100 l100 -100l100 100z"/>
    <glyph glyph-name="uniFC6A" unicode="ﱭ" horiz-adv-x="974" arabic-form="final" d="M977 0v166q-53 0 -78 52q-9 14 -18 44t-23 88q-7 28 -16.5 59t-18.5 56.5t-17 42t-13 16.5q-7 0 -13 -12q-6 -56 -16.5 -92t-28.5 -57.5t-44 -32t-63 -15.5q-19 25 -32 41.5t-21 25.5t-12 12.5t-6 3.5q-1 -1 -2.5 -4.5t-4.5 -18t-7.5 -45t-12.5 -86.5q40 -54 64 -95.5 t36.5 -79t16.5 -76.5t4 -87q0 -39 -108 -109q-66 -43 -122 -61.5t-116 -18.5q-53 0 -97.5 19.5t-76.5 52.5t-50 77t-18 93v23q0 10 1.5 23.5t6.5 33t14 45.5t23 61l-4 31l-11 10q-9 0 -19.5 -17t-21 -45t-20.5 -63.5t-17 -71.5l-7 -102q0 -72 21.5 -132t58.5 -103.5 t86.5 -67.5t105.5 -24q120 0 244 73q59 34 95 66t55.5 69.5t26 83.5t6.5 108q0 10 -0.5 22.5t-3 36t-7 62.5t-12.5 101q34 16 55 30.5t33 29.5t18 30t11 33q5 -35 10.5 -71t10.5 -71q39 -163 155 -163zM947 -371l-128 73l-70 -135l129 -64zM358 552l-94 -99l-103 82l86 101z "/>
    <glyph glyph-name="uniFC70" unicode="ﲔ" horiz-adv-x="969" arabic-form="final" d="M971 0v166q-53 0 -78 52q-9 14 -18 44t-23 88q-7 28 -16.5 59t-18.5 56.5t-17 42t-13 16.5q-7 0 -13 -12q-6 -56 -16.5 -92t-28.5 -57.5t-44 -32t-63 -15.5q-19 25 -32 41.5t-21 25.5t-12 12.5t-6 3.5q-1 -1 -2.5 -4.5t-4.5 -18t-7.5 -45t-12.5 -86.5q40 -54 64 -95.5 t36.5 -79t16.5 -76.5t4 -87q0 -39 -108 -109q-66 -43 -122 -61.5t-116 -18.5q-53 0 -97.5 19.5t-76.5 52.5t-50 77t-18 93v23q0 10 1.5 23.5t6.5 33t14 45.5t23 61l-4 31l-11 10q-9 0 -19.5 -17t-21 -45t-20.5 -63.5t-17 -71.5l-7 -102q0 -72 21.5 -132t58.5 -103.5 t86.5 -67.5t105.5 -24q120 0 244 73q59 34 95 66t55.5 69.5t26 83.5t6.5 108q0 10 -0.5 22.5t-3 36t-7 62.5t-12.5 101q34 16 55 30.5t33 29.5t18 30t11 33q5 -35 10.5 -71t10.5 -71q39 -163 155 -163zM352 552l-94 -99l-103 82l86 101zM896 -557l-110 93l67 124l106 -80z M779 -463l-61 -143l-116 87l61 122z"/>
    <glyph glyph-name="uniFC91" unicode="ﱪ" horiz-adv-x="1161" arabic-form="final" d="M1165 0v166q-52 0 -97.5 19.5t-83 69.5t-67.5 136t-51 220q-6 14 -9 17.5t-6 3.5q-8 -4 -13 -9t-10 -19t-12 -40.5t-19 -72.5q-11 -37 -28.5 -55.5t-37.5 -24t-40.5 -2t-38 10.5t-29.5 13.5t-14 6.5q-3 0 -7 -4t-8.5 -19.5t-10.5 -48t-14 -89.5q0 -20 13 -20 q35 -8 54 -24t26 -37q0 -19 -32 -78q-32 -54 -72 -103t-85 -90.5t-94.5 -74.5t-100.5 -55q-15 -7 -33.5 -14t-46.5 -13t-68 -10.5t-100 -7.5q-18 -3 -20.5 -8t17 -13.5t65.5 -19.5t125 -26q18 -3 40.5 -6t47.5 -3t51 5.5t51 20.5q25 19 51 41.5t54 54t59 76t68 109.5 q10 18 17 34.5t13.5 36.5t13 45.5t15.5 61.5q3 20 4.5 37.5t0.5 40.5l45 13q67 30 97 147q15 -99 36 -168.5t51 -115.5t69.5 -72.5t92.5 -40.5zM966 -350l-105 -110l-114 91l95 112z"/>
    <glyph glyph-name="uniFC6B" unicode="ﱰ" horiz-adv-x="1150" arabic-form="final" d="M1156 0v165q-52 1 -97.5 20.5t-83 69.5t-67.5 136t-51 220q-6 14 -9 17.5t-6 3.5q-8 -4 -13 -9t-10 -19t-12 -40.5t-19 -72.5q-11 -37 -28.5 -55.5t-37.5 -24t-40.5 -2t-37.5 10.5t-29 13.5t-15 6.5t-7 -4t-8.5 -19.5t-10.5 -48t-14 -89.5q0 -20 13 -20q35 -8 54 -24 t26 -37q0 -19 -32 -78q-32 -54 -72 -103t-85 -90.5t-94.5 -74.5t-100.5 -55q-15 -7 -33.5 -14t-46.5 -13t-68 -10.5t-100 -7.5q-18 -3 -20.5 -8t17 -13.5t65.5 -19.5t125 -26q18 -3 40.5 -6t47.5 -3t51 5.5t51 20.5q25 19 51 41.5t54 54t59 76t68 109.5q10 18 17 34.5 t13.5 36.5t13 45.5t15.5 61.5q3 20 4.5 37.5t0.5 40.5l45 13q67 30 97 147q15 -99 36 -168.5t51 -115.5t69.5 -72.5t92.5 -40.5zM937 927l-109 -114l-119 95l99 116zM672 900l-103 -107l-111 89l93 109z"/>
    <glyph glyph-name="uniFC92" unicode="ﲑ" horiz-adv-x="1150" arabic-form="final" d="M1156 0v165q-52 1 -97.5 20.5t-83 69.5t-67.5 136t-51 220q-6 14 -9 17.5t-6 3.5q-8 -4 -13 -9t-10 -19t-12 -40.5t-19 -72.5q-11 -37 -28.5 -55.5t-37.5 -24t-40.5 -2t-37.5 10.5t-29 13.5t-15 6.5t-7 -4t-8.5 -19.5t-10.5 -48t-14 -89.5q0 -20 13 -20q35 -8 54 -24 t26 -37q0 -19 -32 -78q-32 -54 -72 -103t-85 -90.5t-94.5 -74.5t-100.5 -55q-15 -7 -33.5 -14t-46.5 -13t-68 -10.5t-100 -7.5q-18 -3 -20.5 -8t17 -13.5t65.5 -19.5t125 -26q18 -3 40.5 -6t47.5 -3t51 5.5t51 20.5q25 19 51 41.5t54 54t59 76t68 109.5q10 18 17 34.5 t13.5 36.5t13 45.5t15.5 61.5q3 20 4.5 37.5t0.5 40.5l45 13q67 30 97 147q15 -99 36 -168.5t51 -115.5t69.5 -72.5t92.5 -40.5zM1092 -179l-109 -114l-119 95l99 116zM827 -206l-103 -107l-111 89l93 109z"/>
    <glyph glyph-name="uniFC32" unicode="ﱫ" horiz-adv-x="1150" arabic-form="final" d="M1156 0v165q-52 1 -97.5 20.5t-83 69.5t-67.5 136t-51 220q-6 14 -9 17.5t-6 3.5q-8 -4 -13 -9t-10 -19t-12 -40.5t-19 -72.5q-11 -37 -28.5 -55.5t-37.5 -24t-40.5 -2t-37.5 10.5t-29 13.5t-15 6.5t-7 -4t-8.5 -19.5t-10.5 -48t-14 -89.5q0 -20 13 -20q35 -8 54 -24 t26 -37q0 -19 -32 -78q-32 -54 -72 -103t-85 -90.5t-94.5 -74.5t-100.5 -55q-15 -7 -33.5 -14t-46.5 -13t-68 -10.5t-100 -7.5q-18 -3 -20.5 -8t17 -13.5t65.5 -19.5t125 -26q18 -3 40.5 -6t47.5 -3t51 5.5t51 20.5q25 19 51 41.5t54 54t59 76t68 109.5q10 18 17 34.5 t13.5 36.5t13 45.5t15.5 61.5q3 20 4.5 37.5t0.5 40.5l45 13q67 30 97 147q15 -99 36 -168.5t51 -115.5t69.5 -72.5t92.5 -40.5zM1027 -114l-109 -114l-119 95l99 116zM507 864l-103 -107l-111 89l93 109z"/>
    <glyph glyph-name="glyph264" unicode="ﲒ" horiz-adv-x="1150" arabic-form="final" d="M1156 0v165q-52 1 -97.5 20.5t-83 69.5t-67.5 136t-51 220q-6 14 -9 17.5t-6 3.5q-8 -4 -13 -9t-10 -19t-12 -40.5t-19 -72.5q-11 -37 -28.5 -55.5t-37.5 -24t-40.5 -2t-37.5 10.5t-29 13.5t-15 6.5t-7 -4t-8.5 -19.5t-10.5 -48t-14 -89.5q0 -20 13 -20q35 -8 54 -24 t26 -37q0 -19 -32 -78q-32 -54 -72 -103t-85 -90.5t-94.5 -74.5t-100.5 -55q-15 -7 -33.5 -14t-46.5 -13t-68 -10.5t-100 -7.5q-18 -3 -20.5 -8t17 -13.5t65.5 -19.5t125 -26q18 -3 40.5 -6t47.5 -3t51 5.5t51 20.5q25 19 51 41.5t54 54t59 76t68 109.5q10 18 17 34.5 t13.5 36.5t13 45.5t15.5 61.5q3 20 4.5 37.5t0.5 40.5l45 13q67 30 97 147q15 -99 36 -168.5t51 -115.5t69.5 -72.5t92.5 -40.5zM1092 -179l-109 -114l-119 95l99 116zM827 -206l-103 -107l-111 89l93 109zM508 662l-103 -107l-111 89l93 109z"/>
    <glyph glyph-name="uniFCD3" unicode="ﰲ" horiz-adv-x="1674" arabic-form="isolated" d="M1455 903l-96 -116l-113 81q0 3 3.5 9t12.5 19.5t26 35.5t44 57zM1443 411q2 11 0 29t-15 38q-20 12 -34 1.5t-28 -55.5q0 -6 4 -12.5t10 -12t12.5 -9t11.5 -3.5q11 0 24 4.5t15 19.5zM1060 166q206 0 265.5 5t101 14.5t66.5 23t39 31.5q-5 29 -12.5 34.5t-16.5 3.5 q-18 -15 -34.5 -24t-31 -13.5t-28 -5.5t-26.5 -1q-27 0 -52.5 11.5t-45 30t-31.5 42.5t-12 50q-3 18 4 48t20.5 63.5t31.5 67t37.5 60.5t38.5 43t34 15q35 -2 75.5 -39.5t76.5 -117.5q38 -85 45 -146.5t11 -131.5q-36 -114 -89 -160.5t-142 -55.5l-89 -14h-236v166z M1062 -274q-28 -56 -72.5 -103.5t-100.5 -86t-120.5 -68t-132.5 -49.5t-137 -30t-133 -10q-47 0 -95 14.5t-89.5 41.5t-74 65.5t-48.5 86.5q-20 62 -20 151q0 30 5.5 67t16 75t25 75.5t32 68t37.5 52t41 28.5l3 -13q0 -10 -8 -24.5t-18.5 -34.5t-21 -45.5t-16.5 -57.5 l-14 -72q-2 -64 8 -110.5t31 -79.5t52 -56t72 -41q54 -22 117.5 -29t131 -0.5t135 26t129.5 50.5t115.5 73.5t93.5 93.5q4 10 -14.5 18t-50 16t-72.5 16.5t-81.5 19t-77 23t-59.5 29.5q0 24 51 134q27 19 69 41t88.5 41t91.5 31.5t129 12.5v-166q-17 0 -78.5 -6t-113.5 -19 q42 -14 82 -28.5t82 -28.5q20 -30 34 -82q-2 -47 -9 -68.5t-15 -41.5zM608 -743l-100 -100l100 -100l100 100zM308 -743l-100 -100l100 -100l100 100z"/>
    <glyph glyph-name="uniFCDB" unicode="ﰱ" horiz-adv-x="1660" arabic-form="isolated" d="M1435 903l-96 -116l-113 81q0 3 3.5 9t12.5 19.5t26 35.5t44 57zM1423 411q2 11 0 29t-15 38q-20 12 -34 1.5t-28 -55.5q0 -6 4 -12.5t10 -12t12.5 -9t11.5 -3.5q11 0 24 4.5t15 19.5zM1040 166q206 0 265.5 5t101 14.5t66.5 23t39 31.5q-5 29 -12.5 34.5t-16.5 3.5 q-18 -15 -34.5 -24t-31 -13.5t-28 -5.5t-26.5 -1q-27 0 -52.5 11.5t-45 30t-31.5 42.5t-12 50q-3 18 4 48t20.5 63.5t31.5 67t37.5 60.5t38.5 43t34 15q35 -2 75.5 -39.5t76.5 -117.5q38 -85 45 -146.5t11 -131.5q-36 -114 -89 -160.5t-142 -55.5l-89 -14h-236v166z M1062 -274q-28 -56 -72.5 -103.5t-100.5 -86t-120.5 -68t-132.5 -49.5t-137 -30t-133 -10q-47 0 -95 14.5t-89.5 41.5t-74 65.5t-48.5 86.5q-20 62 -20 151q0 30 5.5 67t16 75t25 75.5t32 68t37.5 52t41 28.5l3 -13q0 -10 -8 -24.5t-18.5 -34.5t-21 -45.5t-16.5 -57.5 l-14 -72q-2 -64 8 -110.5t31 -79.5t52 -56t72 -41q54 -22 117.5 -29t131 -0.5t135 26t129.5 50.5t115.5 73.5t93.5 93.5q4 10 -14.5 18t-50 16t-72.5 16.5t-81.5 19t-77 23t-59.5 29.5q0 24 51 134q27 19 69 41t88.5 41t91.5 31.5t129 12.5v-166q-17 0 -78.5 -6t-113.5 -19 q42 -14 82 -28.5t82 -28.5q20 -30 34 -82q-2 -47 -9 -68.5t-15 -41.5z"/>
    </font>
</defs>
</svg>
