<?xml version="1.0" encoding="UTF-8" standalone="no"?>
<!DOCTYPE svg PUBLIC "-//W3C//DTD SVG 1.1//EN" "http://www.w3.org/Graphics/SVG/1.1/DTD/svg11.dtd">
<svg xmlns="http://www.w3.org/2000/svg">
<metadata>
This is a custom SVG webfont generated by Font Squirrel.
Copyright   : Copyright c wwwcrulporg 2003 All rights reserved
Designer    : Mr JamilurRehman
Foundry     : Center For Research in Urdu Language Processing CRULP
Foundry URL : wwwcrulporg
</metadata>
<defs>
<font id="NafeesRegular" horiz-adv-x="0">
<font-face units-per-em="2048" ascent="1638" descent="-410"/>
<missing-glyph horiz-adv-x="203"/>
<glyph unicode="ﷲ" horiz-adv-x="1843" arabic-form="isolated" d="M83 -132q-1 5 34 34q139 125 255.5 256t202.5 295q23 47 30 59t7 -10q-4 -31 -7 -59.5t3 -59.5q12 -45 55 -76t88 -31q66 0 107 37t67.5 81t40 81t23.5 37q4 -20 10 -41.5t19 -36.5q12 -22 48 -34.5t76 -9.5t71.5 21.5t35.5 57.5q0 55 -8 110.5t-8 110.5q0 19 1 29t9 33 q6 18 17 58l25 82l25 79q11 37 15 53q8 25 13 15.5t8 -43t5.5 -89t4.5 -125.5q0 -63 -1 -127.5t-16 -128.5q-10 -53 -32.5 -128.5t-58.5 -146.5t-87 -120t-121 -49q-45 0 -77.5 18.5t-63.5 46.5q-41 -90 -102.5 -133t-122 -37.5t-107.5 60.5t-57 162q-2 -2 -2 0t-6 -9 l-31 -65q-14 -29 -30.5 -51.5t-37 -42t-51.5 -37.5l-114 -56l-113 -57q-41 -18 -42 -13zM885 778q0 6 2 29.5t6 48.5t11 45.5t19 20.5q9 0 9 -13q0 -22 -6.5 -41.5t-6.5 -42.5q0 -10 3.5 -24.5t17.5 -14.5q20 0 26.5 22.5t7.5 50.5t4 50.5t17 22.5q4 0 8 -6t4 -11v-96 q0 -14 14.5 -20t24.5 -6q2 0 8.5 1t6.5 5v127q0 8 6 15t12 7q8 0 12.5 -11t5.5 -24.5t0 -27t-1 -17.5q0 -16 -2.5 -39.5t-9.5 -46t-20.5 -39t-35.5 -16.5q-10 0 -19.5 2t-19.5 2q-4 0 -22.5 -13t-26.5 -18h-4q-33 0 -42 25t-9 53zM977 963v26q0 37 1 84t3 78q4 59 12 121.5 t29 120.5q6 12 16 12v-29q-4 -71 -4 -149q0 -76 -16 -148l-12 -45q-7 -28 -13 -47.5t-6 -23.5l-6 -7q0 2 -4 7zM1559 1254.5q-1 70.5 18 129.5l90 293q4 -4 7 -46t5 -107.5t4 -147.5t3 -166t3 -161.5t4 -135.5v-182q0 -133 -13 -261t-62 -259l-21 -48q-14 -32 -27 -44 q0 71 3.5 144t3.5 145q0 180 -8.5 358t-8.5 358q0 60 -1 130.5z"/>
<glyph unicode="ﷺ" horiz-adv-x="3682" arabic-form="isolated" d="M143 82v201q2 90 17.5 179t48.5 171t89 150.5t142 117.5q31 19 68 31t72 22q-5 9 -17 8t-12 9q0 26 15.5 45.5t25.5 56.5q2 17 9 49.5t13 68.5l13 67q6 30 8 42q8 52 8 103t2 102q0 35 1 89l2 103q1 50 1 85v37l37 111q19 55 35 108q4 8 6 0q4 -113 7 -224.5t7 -226.5 q2 -26 15.5 -53t33 -47.5t44 -33.5t51.5 -13q16 0 35.5 4t31.5 16l58 56l57 57q14 14 34.5 21.5t41.5 7.5q10 0 20.5 -4.5t22.5 -4.5q16 0 25.5 12.5t15.5 26.5l11 27q5 12 11 12q6 2 11.5 -2t11.5 -4q12 0 21.5 9t17.5 22.5t14 27.5l10 25q11 16 16 11t3 -23 q-11 -66 -52.5 -126.5t-87.5 -101.5q-4 -2 -13 -11t-21 -18l-26 -19q-13 -9 -24 -11q-14 0 -24 4t-27 2q-20 0 -39 -12q-20 -21 -41.5 -57.5t-49 -71.5t-64.5 -62.5t-88 -29.5q-29 0 -56.5 13t-50.5 30q-10 -21 -20.5 -45.5t-14.5 -46.5l57 -27q31 -14 57 -34.5t43 -46.5 t17 -60q0 -39 -18 -75t-47 -64.5t-65.5 -50t-73.5 -32.5q-37 -10 -97.5 -19t-115.5 -26q-72 -28 -125.5 -83.5t-61.5 -147.5l-19 -599l-18 -599q-6 -2 -9 5t-5 17l-4 18q-2 9 -2 11q-10 184 -17.5 361.5t-7.5 359.5zM336 -96q2 8 10 14l144 108l143 111q16 13 30.5 27 t14.5 35q0 26 -29 26q-16 0 -32.5 -8t-34.5 -8q-50 0 -91.5 33.5t-41.5 83.5q0 32 13 68l25 71q15 35 23 63.5t12 38.5q10 23 28.5 39.5t45.5 16.5q43 0 73.5 -32t49 -77t27 -93t8.5 -81q0 -49 -13.5 -94t-33 -88t-43.5 -85l-48 -83l-130 -44l-130 -44q-22 -6 -20 2z M608 2138q0 16 2 43t8 45q11 33 19 45q4 4 4 6t4 2q0 -18 -3 -36.5t-3 -36.5q0 -19 6 -37.5t29 -18.5q22 2 25 16.5t8 35.5q2 16 5 32.5t7 28.5q10 23 20 31q0 -17 -2 -34t-2 -34q0 -20 4 -42.5t35 -29.5q12 0 19 9q2 22 1 39.5t7 42.5q4 18 12 36.5t12 22.5q2 -20 2 -47 t-4 -57q-2 -13 -6 -33.5t-12 -39t-20.5 -32.5t-30.5 -14q-17 0 -27 11t-16 26q-11 -17 -23 -30t-33 -13q-22 0 -34.5 18t-12.5 45zM864 487q2 45 31 100.5t70 103.5t88 81t88 33q26 0 53 -15.5t66 -15.5q18 0 43.5 7t48 19.5t39 30t16.5 39.5v549q-2 78 25 143l53 138 q4 8 7 16t11 10q0 -192 -3 -382.5t-15 -380.5q-4 -45 -25.5 -112t-57.5 -129.5t-86 -107.5t-112 -45q-18 0 -33.5 7.5t-30 16.5t-29.5 16t-34 7q-28 -2 -57 -14t-55.5 -30.5t-51 -41t-43.5 -43.5q-6 -4 -6 0zM958 133q3 23 14 52.5t13 29.5q21 -6 35 -21.5t22 -23.5 q21 -29 29 -66.5t8 -72.5q0 -60 -20.5 -116t-48.5 -110q-6 -10 -11.5 -11t-1.5 13q17 46 28 79.5t11 78.5q0 51 -19.5 99.5t-58.5 68.5zM1128 1839q0 35 20.5 84t51.5 95t68 78t71 32q39 0 77 -14.5t79 -14.5q92 0 169 48t132 116l24 35q15 20 23 39q10 18 13.5 12t-1.5 -22 q-4 -27 -16 -59t-22 -50q-23 -59 -58 -112.5t-80 -94.5t-102 -66.5t-125 -27.5q-47 0 -71.5 7t-40.5 14l-28 14q-14 6 -36 6q-19 0 -38 -11.5t-37.5 -30t-34.5 -40.5l-29 -37q-4 -10 -9 0zM1192 201q14 51 41 108.5t64.5 107.5t88 82.5t113.5 35.5q35 0 63.5 -18.5 t63.5 -18.5q39 0 81 19.5t75 41.5q10 6 29.5 25.5t31.5 36.5q17 20 21 14t0 -21q-6 -20 -15.5 -38.5t-15.5 -38.5q18 0 47 2t56.5 9t49 21.5t25.5 40.5v584q0 16 8.5 39.5t12.5 36.5q2 8 10 28l16 40q8 20 16.5 38.5t12.5 26.5l4 8q2 4 8 4q-4 -104 -7 -213.5t-3 -212.5 q0 -37 2 -67.5t10 -55t26.5 -46t53.5 -42.5q8 8 20.5 28.5t24.5 45.5l22 46l17 34q23 41 58.5 81t86.5 40q31 0 65 -20.5t34 -55.5q0 -16 -13.5 -30.5t-29.5 -14.5q-27 0 -51.5 11t-51.5 11q-32 0 -64 -25.5t-32 -60.5q0 -18 13.5 -34.5t32 -28.5t39 -19.5t36.5 -7.5 q22 0 45 12.5t43.5 30t37.5 37.5l30 37q8 12 11 11t2 -9t-5 -18.5t-8 -18.5q-4 -6 -14 -24l-22 -36l-21.5 -34t-14.5 -23q-18 -28 -44 -60t-57.5 -59.5t-69.5 -45t-77 -17.5q-47 0 -83 19.5t-64 42.5l-11 -20q-8 -13 -16 -28.5t-15 -31t-12 -21.5q-6 -10 -18 -27.5 t-26.5 -34t-29 -28.5t-24.5 -12q-14 0 -31.5 7t-34 17.5t-30.5 20.5l-23 16q-20 -32 -44.5 -64t-54.5 -57.5t-65.5 -42t-78.5 -16.5q-41 0 -78 22.5t-78 22.5q-64 -4 -103.5 -41t-74.5 -74l-29 -33q-12 -14 -8 3zM1321 -14l92 143l5 5q1 1 3 1l2 -2q4 -4 16.5 -13t25 -19.5 t24.5 -19.5t16 -13q2 -2 17.5 -12.5t23.5 -14.5q10 -4 13.5 -7t11.5 -3t10 6l90 135l156 -115l6 -6v-2v-2q0 -4 -6 -10l-96 -139q-5 -4 -11 -4q-8 0 -16 4l-133 98l-92 -129q-4 -4 -11 -4q-14 0 -34.5 13t-30.5 22l-25 19q-18 13 -22 17q-8 7 -35 35v17zM1640 721 q5 96 8 201.5t4 211.5l2 212q1 104 1 196q16 62 39.5 118t44.5 116q2 4 5 9t7 5l-4 -410q-2 -204 -18 -409q-13 -107 -62 -209q-4 -8 -12 -25.5t-15 -15.5zM1947 1579q3 8 9 14l144 111l143 108q16 13 31.5 27t15.5 37q0 10 -9.5 17.5t-19.5 7.5q-18 0 -34.5 -8.5 t-35.5 -8.5q-24 0 -47.5 9.5t-42 24.5t-31 37.5t-12.5 47.5q0 33 14 67l27 70q12 35 20.5 64.5t12.5 40.5q10 22 29.5 37.5t44.5 15.5q43 0 73.5 -32t49 -76t26.5 -93t8 -82q0 -49 -13 -94t-32.5 -88t-43.5 -85l-48 -83l-130 -45l-130 -43q-22 -6 -19 2zM1978 -90 q0 43 3.5 80t9.5 71.5t15 71.5t22 78q8 31 16 53l16 44q8 20 18.5 43.5t24.5 58.5q11 20 17 19t-2 -26q-27 -94 -46.5 -183t-19.5 -187q0 -64 14.5 -123.5t46 -106.5t82 -75.5t121.5 -28.5q56 0 108 20.5t97 53t83 75.5t62 91q19 32 28 53.5t9 54.5q-4 43 -31.5 69.5 t-59.5 47t-56.5 40t-20.5 48.5q0 35 15.5 67.5t29.5 65.5q23 61 39.5 127t26.5 133q4 105 3 217.5t5 218.5q8 29 20 66l23 69q10 31 19.5 53.5t15.5 20.5q4 -119 4 -239q0 -121 2 -242q-2 -55 16.5 -96t52.5 -62.5t78 -19.5t95 35q12 10 23.5 24.5t20.5 28.5t18.5 23.5 t19.5 9.5q22 0 40.5 -16.5t41.5 -12.5l86 95q41 46 88 89q20 17 46.5 34t55.5 17q37 0 62.5 -22.5t25.5 -58.5q0 -29 -10 -62t-23 -57q-45 -92 -135 -151.5t-194 -59.5q-54 0 -83.5 17.5t-47.5 66.5l-39 -61q-21 -33 -46.5 -60t-57 -44t-70.5 -17q-92 0 -131 92 q-5 -6 -11 -21.5t-12 -33.5l-12 -34q-6 -18 -10 -26q0 -8 4 -14q6 -13 31.5 -33.5t54 -50t49 -67.5t18.5 -87q-2 -63 -19.5 -140t-48 -153t-74.5 -146.5t-98.5 -124.5t-119 -86t-137.5 -30q-93 0 -152 36t-95 95.5t-49.5 133t-11.5 151.5zM2279 1413q11 17 21 34l20 34 q37 28 80 49l97 51q22 14 38.5 22.5t32.5 18.5q-14 -20 -31.5 -38.5t-33.5 -41.5l-76 -42l-80 -46q-4 -2 -12 -8t-19.5 -12.5t-20.5 -12.5t-16 -8zM2456 1212q-2 2 2 7l142 153q71 80 124 170l41 82q2 4 8 19.5t8 19.5q2 6 10 6l-4 -46q-2 -24 2 -46q2 -14 14.5 -26.5 t28 -21.5t30.5 -14.5t28 -5.5q32 0 56 14.5t40 37t27.5 50t21.5 54.5q2 4 4 9t4 5q6 0 8.5 -9t7.5 -21.5t14 -25.5t30 -19q20 -7 36.5 -6t34.5 6q17 4 33.5 17t18.5 30q0 41 -9.5 83t-9.5 83q0 12 7 39l16 59q8 31 16 58.5t10 39.5q6 29 11.5 34t9.5 -30q6 -53 11 -112.5 t5 -96.5q2 -41 -7 -110.5t-32.5 -138t-62.5 -119.5t-94 -56q-58 -2 -95 41l-26 -43q-13 -22 -30 -41.5t-39.5 -33t-51.5 -13.5q-33 2 -55.5 17.5t-37 37t-23.5 46t-15 45.5q-23 -43 -46.5 -81t-66.5 -63q-16 -10 -41 -23l-48 -27l-60 -32q-4 -4 -6 -2zM2918 1835q-2 16 1 43 t10 45q6 31 18 45q4 10 6 8q0 -16 -2 -34.5t-2 -36.5q0 -21 5 -38.5t28 -17.5q22 0 25.5 14.5t7.5 37.5q4 16 7 31.5t7 27.5q6 20 18 31q0 -17 -2 -34.5t-2 -33.5q0 -20 4.5 -42.5t34.5 -29.5q13 0 21 11q0 22 -1 39.5t7 42.5q6 18 13 35.5t11 21.5q2 -19 2 -47 q0 -27 -4 -58q-2 -12 -6 -31.5t-12 -39t-20.5 -32.5t-28.5 -13q-17 0 -27 10t-18 27q-10 -17 -21.5 -30t-34.5 -13q-22 0 -33.5 18t-11.5 43zM2933 981l20 33q10 18 21 35q39 28 81 49l95 51q22 14 38 23l36 18q-17 -21 -34.5 -39t-33.5 -41l-75 -43l-81 -45q-4 -2 -12 -8 t-19.5 -12.5t-20.5 -12.5t-15 -8zM3023 2054q2 31 3 74l2 88l2 88q1 43 1 72l21 68l20 69l5 10q3 6 9 6q0 -4 -1 -16t-1 -16v-54v-84q0 -45 -1 -85t-1 -52q-2 -12 -8 -35.5t-14 -48t-16.5 -46t-12.5 -30.5q0 -8 -8 -8zM3185 717q32 -2 82.5 9t95.5 29.5t76.5 41t31.5 41.5 q0 28 -22.5 38.5t-44.5 10.5q-23 0 -49.5 -9.5t-42.5 -27.5q-35 -33 -66 -65.5t-61 -67.5zM3428 1184q4 96 7.5 201.5t4.5 212.5l2 210q1 105 1 197q16 61 39.5 117.5t44.5 115.5q2 5 5 10t7 5l-4 -410q-2 -205 -19 -409q-12 -107 -61 -209l-13 -25q-8 -18 -14 -16z"/>
<glyph unicode="ﷻ" horiz-adv-x="2438" arabic-form="isolated" d="M98 439.5q-2 1.5 0 15.5q12 42 38 88t61.5 87t78 73.5t89.5 46.5q8 2 15 4.5t15 2.5q16 0 30.5 -6t30.5 -11q26 -7 54 -3t52 14q37 16 60.5 46t28.5 73v438l33 116l34 114q2 3 4.5 4t2.5 -4q5 -82 8.5 -158.5t3.5 -160.5q0 -70 -2 -130t-9.5 -116t-21 -109.5 t-36.5 -110.5q-15 -34 -36.5 -72.5t-49.5 -71.5t-63 -54.5t-75 -21.5q-24 0 -40 7t-29.5 16t-26.5 16.5t-30 8.5q-31 -5 -58 -16q-23 -9 -44 -23.5t-40 -30t-36 -31.5l-29 -31q-11 -11 -13 -9.5zM787 649q0 12 11 12q11 -4 24 -12t27 -10h3q28 57 37.5 118t11.5 123 q3 55 4.5 101t2.5 89v90q1 45 4 100l70 212q3 10 6 3q1 -66 2.5 -122.5t2 -111t-1.5 -111.5t-6 -124q-3 -67 -12.5 -132.5t-41.5 -125.5q-4 -6 -13 -22l-20 -34q-11 -17 -19.5 -33t-11.5 -23q26 -5 54 -4.5t54.5 7.5t49.5 22t40 38q5 5 9 12t7.5 20.5t7 35.5t7.5 57 q3 54 5.5 107t4.5 107q1 43 2.5 77.5t3.5 66.5l4 68q2 34 2 78l72 211l2 2q1 0 1 1h3q1 -20 1 -39v-38q0 -58 -1.5 -99.5t-2.5 -83.5q0 -24 -1.5 -59t0 -73.5t6.5 -76t18 -65.5q12 -27 42.5 -36.5t68.5 -10.5q3 0 4 1q1 0 1 1q8 33 20 78.5t33 83.5q9 23 26.5 39t39.5 22.5 t45.5 3t43.5 -18.5q8 -4 16.5 -6.5t19.5 -2.5q16 0 25 9q12 10 21 10t13.5 -7t4 -18t-7.5 -22q-5 -14 -13 -27.5t-14 -26.5q-11 -18 -21 -39l-50 -93q-28 -49 -63 -90t-79.5 -68.5t-101.5 -28.5q-35 -2 -62 7t-50 32q-1 -1 -1 -1.5t-1 -1.5q-15 -29 -26 -54l-24 -51 q-12 -25 -27.5 -51t-39.5 -56q-13 -16 -28 -30t-30.5 -25t-32 -17t-32.5 -5q-31 4 -56 21t-43.5 38.5t-31 44t-18.5 37.5zM931 52q0 126 37 242t93 225q0 2 2.5 3.5t4.5 1.5t3 -4.5t-3 -17.5q-25 -73 -38.5 -125t-20 -88t-8 -58.5t-1.5 -37.5q0 -66 17 -127.5t51.5 -108 t88 -74.5t127.5 -28q110 0 195 45t152 136q38 51 61 107t36 115t19 120.5t9 123.5q3 81 4 158.5t0 153.5v152q-1 77 -1 157l11 45q5 19 10.5 37t12.5 36.5t18 43.5q8 18 14.5 36t14.5 38q6 30 13 27.5t3 -31.5l-2 -35l-2 -36q-3 -68 -7 -146t3 -151q2 -33 9 -67.5 t22.5 -62.5t41.5 -46.5t65 -18.5q4 21 10.5 46.5t15 51.5t20.5 51t28 43q9 13 23.5 22t30.5 12.5t32.5 1t30.5 -11.5q12 -6 24.5 -11.5t28.5 -5.5q14 0 25 9q6 7 14.5 8.5t15.5 -1t9.5 -10t-3.5 -18.5q-5 -18 -15 -36l-17 -33l-9 -18l-10 -18q-25 -50 -57.5 -105 t-74.5 -98.5t-95.5 -67t-119.5 -10.5q-41 10 -71 46q-6 -56 -10 -106.5t-9.5 -100.5t-14.5 -101t-24 -108q-17 -61 -41 -126.5t-57 -128.5t-75.5 -119.5t-95 -99.5t-115.5 -69t-138 -27q-48 0 -87 14t-71.5 38.5t-59.5 58t-51 72.5q-14 23 -23.5 49t-12.5 55l-4 58 q-2 27 -2 54zM1276.5 547.5q0.5 12.5 10.5 19.5l63 64l63 64q6 11 16 8t18 -10l27 -23l32 -28l32 -28q15 -14 26 -26q7 -5 6.5 -16t-6.5 -16q-11 -11 -28 -30l-36 -41l-36 -39l-27 -28q-8 -12 -14 -11t-17 7l-33 28l-29 26l-27 26l-32 33q-9 8 -8.5 20.5zM1353 960 q31 1 63 12t61 28.5t54 39.5t42 45v3l-49 20q-26 10 -50 12q-36 0 -56.5 -21t-34.5 -52q-6 -16 -13.5 -33.5t-16.5 -53.5zM1921.5 278.5q0.5 12.5 10.5 19.5l63 64l63 64q6 11 16 8t18 -10l26 -23l32 -27l32 -29q16 -14 27 -26q7 -5 6.5 -16t-6.5 -16q-11 -11 -29 -31 l-36 -40l-36 -40l-26 -27q-8 -12 -14 -11t-17 7l-33 29q-15 12 -28 24l-28 27l-32 33q-9 8 -8.5 20.5zM2007 790q28 1 56.5 10t55.5 23t50.5 32t41.5 39q17 17 17 20v3l-50 21q-25 9 -51 11q-35 0 -56 -21t-34 -51l-13 -33q-8 -19 -17 -54z"/>
<glyph unicode="ﻻ" horiz-adv-x="913" arabic-form="isolated" d="M174 106q23 -2 37 -11t43 -13q41 84 58.5 194.5t22.5 229.5t2 237.5t-3 219.5q0 41 2 77.5t6 69.5l50 152q24 75 46 151q4 12 11.5 14.5t7.5 -28.5v-56q0 -36 1 -79t1 -82v-56v-106v-125v-129v-117q0 -41 -3 -97t-20.5 -128t-53.5 -160t-101 -192q65 -13 129.5 -3.5 t119.5 44.5q35 20 64 46.5t35 69.5q6 58 10 144t7 184t4 199.5t3 190.5t3 155.5t3 95.5l47 161l46 161q8 8 9 0.5t5 -41.5q0 -11 1 -44.5t1 -74.5v-80v-59q0 -115 1 -198t0 -157.5t-5 -153.5t-12 -186q-9 -92 -24 -182t-52 -172q-10 -25 -25.5 -53.5t-35 -59t-44 -59.5 t-51.5 -51q-22 -23 -52 -42.5t-65 -19.5q-36 0 -69 13.5t-62.5 36t-53 51t-40.5 57.5q-35 55 -4 61z"/>
<glyph/>
<glyph unicode=" " horiz-adv-x="203"/>
<glyph unicode=" " horiz-adv-x="203"/>
<glyph unicode=" " horiz-adv-x="203"/>
<glyph unicode="!" horiz-adv-x="545" d="M113 -256q-2 4 13 29.5t36.5 55.5t42 53.5t28.5 23.5q5 0 31 -18l58 -38l54.5 -41.5t24.5 -25.5q0 -10 -15 -37t-35.5 -54.5t-42 -50t-32.5 -24.5l-84 59q-45 31 -79 68zM213 104q0 46 9 87.5t9 87.5v430q0 53 20.5 112.5t41.5 108.5q14 33 43 92q4 10 8 7t4 -7v-485 q0 -111 -21.5 -200t-70.5 -181q-4 -9 -16.5 -30.5t-26.5 -21.5z"/>
<glyph unicode="&quot;" horiz-adv-x="532" d="M166 1518q0 6 3 20t7 28.5t9 26t10 11.5q10 2 22 -20.5t23.5 -57.5t19.5 -79t8 -85q0 -57 -2 -116.5t-30 -84.5q-7 94 -15 152.5t-17 95.5t-19.5 60.5t-18.5 48.5zM324 1526q0 6 3 20.5t7 28.5t9 25.5t9 11.5q10 2 22.5 -20.5t24 -57.5t19.5 -79t8 -85q0 -57 -2 -116.5 t-31 -84.5q-6 95 -14 153t-17.5 95t-19.5 60.5t-18 48.5z"/>
<glyph unicode="#" horiz-adv-x="1210" d="M143 59v123h289l33 287l123 -2l-33 -285h135l33 289l123 -2l-33 -287h252l-2 -123h-264l-17 -135h285l-2 -123h-297l-33 -290h-123l33 290h-135l-33 -293h-123l33 293h-242v123h256l17 135h-275zM524 -76h135l17 135h-135z"/>
<glyph unicode="$" horiz-adv-x="989" d="M143 807q0 65 26 125.5t71 107.5t103 76t126 29q6 2 5 71.5t1 69.5h55v-31v-43v-43v-28q58 0 109 -24.5t92 -64.5t68.5 -91.5t36.5 -106.5h-125q-25 61 -68 105.5t-108 62.5v-457q45 -6 86 -21.5t75.5 -39t61 -56t47 -69.5t31 -78t10.5 -86q0 -68 -24.5 -128 t-67.5 -108.5t-101.5 -79t-126.5 -38.5v-49v-62v-51v-25q-2 0 -11 -1t-19 -1h-19q-8 0 -8 4v189q-53 0 -108.5 26.5t-100.5 68.5t-73.5 95.5t-28.5 104.5h61q31 0 62 -4q14 -64 68 -112t120 -58q-2 57 -2 104v96v111q0 61 -2 143q-53 19 -86 32t-52.5 22.5t-28.5 14.5t-13 9 q-74 51 -108 127t-34 162zM268 801q0 -37 14.5 -78t41 -74t63.5 -54.5t78 -21.5h2q0 9 1 29.5t1 67.5v133v219q-43 0 -80 -19.5t-63.5 -51t-42 -71.5t-15.5 -79zM526 -14q82 22 139.5 81.5t57.5 147.5q0 41 -16.5 78t-43 65.5t-62.5 48t-75 29.5v-450z"/>
<glyph unicode="%" horiz-adv-x="1192" d="M145 756q-2 4 13.5 29.5t37 55t42 53.5t28.5 24q4 0 31 -18l57 -38q31 -22 55.5 -41.5t24.5 -25.5q0 -11 -15.5 -37.5t-36 -54t-42 -50t-31.5 -24.5l-85 59q-44 31 -79 68zM150 -231l684 1235l215 129l-129 -231l-110 -202l-102 -187l-103 -187l-111 -202l-127 -230 q-68 -41 -115 -67zM750 74q-2 4 13 29.5t36.5 55t42 53.5t28.5 24q4 0 31 -18l57 -38q31 -22 55.5 -41.5t24.5 -25.5q0 -11 -15 -37.5t-35.5 -54t-42 -50t-32.5 -24.5l-85 59q-44 31 -78 68z"/>
<glyph unicode="'" horiz-adv-x="406" d="M166 1518q0 6 3 20t7 28.5t9 26t10 11.5q10 2 22 -20.5t23.5 -57.5t19.5 -79t8 -85q0 -57 -2 -116.5t-30 -84.5q-7 94 -15 152.5t-17 95.5t-19.5 60.5t-18.5 48.5z"/>
<glyph unicode="(" horiz-adv-x="1186" d="M143 283q13 249 71 388.5t162.5 245t244 171t292.5 77.5q-116 -57 -210.5 -140t-161 -184.5t-103.5 -219.5q-35 -117 -43 -334v-4q8 -217 43 -334q37 -119 103.5 -220.5t161 -184.5t210.5 -140q-153 12 -292.5 77.5t-244 171t-162.5 245t-71 385.5z"/>
<glyph unicode=")" horiz-adv-x="1057" d="M143 -592q117 57 211.5 140t161 184.5t102.5 220.5q35 117 44 334v4q-9 217 -44 334q-36 118 -102.5 219.5t-161 184.5t-211.5 140q154 -12 293 -77.5t243.5 -171t163 -244.5t70.5 -389q-12 -246 -70.5 -385.5t-163 -245t-243.5 -171t-293 -77.5z"/>
<glyph unicode="*" horiz-adv-x="1280" d="M143 358q41 29 65.5 48.5t39.5 29.5q8 6 12 6h2q158 -22 311 -65q2 2 3.5 5t1.5 5q-136 78 -261 172q-10 6 -10 16l-18 132l131 -17q10 -2 16 -12q47 -62 90 -127.5t82 -134.5q6 2 13 2l-20 79q-11 42 -15 56q-4 16 -8 43l-10 54q-5 28 -8 49.5t-3 25.5v16l76 103l8 6 l6 -6l76 -103v-16q0 -4 -3 -25.5t-8 -49.5l-10 -54q-4 -27 -8 -43q-2 -8 -5 -23.5t-9 -35t-11 -40t-12 -36.5q5 -2 8 -3t5 -1q80 141 174 264q6 8 16 12l133 17l-20 -132q-4 -12 -10 -16q-66 -49 -132.5 -93t-136.5 -81q2 -4 6 -10q78 22 157 39.5t161 27.5h2q4 0 6 -1t6 -5 q10 -8 105 -78l-115 -88h-2q-2 0 -25.5 4.5t-53.5 9.5t-59.5 11t-47.5 10q-7 0 -22 4l-36 9l-42 12q-21 6 -38 12q-4 -10 -8 -12l140 -84q69 -43 135 -92q6 -7 10 -17l20 -133l-133 19q-12 4 -16 10q-101 129 -178 274l-11 -2q4 -18 11 -39l12 -44q6 -21 10 -38.5t6 -25.5 q4 -17 8 -44l10 -54q5 -27 8 -47.5t3 -24.5v-17l-76 -104l-8 -6q-6 4 -6 6l-76 104v17q0 4 3 24.5t8 47.5l10 54q4 27 8 44q2 8 5 24.5t9 37.5l12 44q6 23 11 39l-11 2q-37 -72 -83 -139l-93 -133q-4 -8 -16 -10l-131 -19l18 133q0 4 10 17q64 47 130.5 90t136.5 80l-9 14 q-16 -6 -35.5 -10t-38 -9.5t-33.5 -9.5t-22 -4q-18 -4 -47.5 -10t-59.5 -11t-53.5 -9.5t-25.5 -4.5h-2z"/>
<glyph unicode="+" horiz-adv-x="1182" d="M143 260v137q95 0 189 -1t192 3v377h135q0 -65 1.5 -164.5t-1.5 -216.5h78h113h113h75v-131l-374 2v-393h-109q-31 0 -31 4v383h-381z"/>
<glyph unicode="," horiz-adv-x="514" d="M117 131q-8 70 17.5 156t76.5 178q12 33 40 65.5t51.5 50t31.5 8.5t-17 -61q-12 -24 -37.5 -70t-43 -98.5t-17.5 -103.5q0 -49 37 -80q16 -14 26.5 -4t22.5 43q6 16 20.5 25.5t32 10.5t33 -8.5t23.5 -27.5q2 -113 -41 -171t-97.5 -66.5t-102.5 31.5t-56 122z"/>
<glyph unicode="-" horiz-adv-x="963" d="M143 283v123q133 0 311.5 1t364.5 1v-125h-676z"/>
<glyph unicode="." horiz-adv-x="1075" d="M148.5 -84q5.5 8 9.5 18l131 142q10 14 38.5 17t41.5 3h127h151h150h118q17 0 11 -5l-11 -9q-28 -29 -68 -64.5t-79 -64.5q-20 -16 -46 -29.5t-52 -15.5q-17 0 -53.5 -1t-86.5 -1h-102h-106h-95h-67q-17 2 -11.5 10z"/>
<glyph unicode="/" horiz-adv-x="1186" d="M143 -477l684 1235l215 129l-128 -231l-110 -202l-102 -187l-103 -187l-111 -202l-128 -230q-67 -41 -114 -66z"/>
<glyph unicode="0" horiz-adv-x="1019" d="M100 190v46v104q0 84 1 167.5t1 146.5v69v34q2 84 34.5 157t88 127t129 84.5t157.5 30.5q79 0 151 -31t126.5 -84t87.5 -124t35 -152q0 -73 0.5 -129t1 -102t1.5 -86v-82q1 -42 1.5 -89.5t0.5 -107.5q-1 -83 -35 -153.5t-90 -122t-129.5 -81t-152.5 -29.5 q-84 0 -158.5 31t-130 86t-88 129t-32.5 161zM280 767q0 -12 0.5 -46.5t1 -83t0.5 -107.5l2 -118v-115q1 -56 1 -99q0 -30 6 -55l353 782q-14 10 -29.5 18t-31.5 15q-25 13 -69 13q-42 0 -83 -15.5t-73.5 -43t-53.5 -64.5t-24 -80v-1zM363 18q24 -20 54 -33q37 -19 91 -19 q35 0 67.5 11t60.5 31t48.5 48t31.5 62q3 12 5.5 53t4.5 98.5t3 125.5t1 135q0 50 -0.5 96.5t-2 84t-3 63.5t-3.5 35l-1 3z"/>
<glyph unicode="1" horiz-adv-x="682" d="M180 856q0 92 1 93l9 6l-1 -1q0 -1 3 1t5 4q9 5 17.5 11.5t11.5 9.5q42 40 68.5 80t35.5 92h182l-2 -1369h-182v1063l-10 10h-138z"/>
<glyph unicode="2" horiz-adv-x="1020" d="M100 -24l582 642h1q23 26 36 60t13 69q0 46 -18.5 86t-50 70t-72 47.5t-84.5 17.5q-28 0 -50 -5t-41.5 -15t-37.5 -24.5t-37 -33.5q-17 -19 -28 -40.5t-17 -44t-8 -45.5t-2 -45l-181 -2q0 7 -0.5 8.5t-0.5 8.5q0 89 29.5 165.5t82.5 133t126.5 89.5t161.5 35 q112 0 206.5 -52t151.5 -149h1q29 -45 43 -98.5t14 -108.5q0 -57 -14.5 -108.5t-46.5 -94.5q-2 -4 -8 -12t-23 -28l-50 -58l-86 -98l-132 -148l-190 -213l7 -17l542 -6v-179l-819 2v191z"/>
<glyph unicode="3" horiz-adv-x="1009" d="M100 159v37v10q0 10 1 11l181 -1q0 -4 -0.5 -3t-0.5 -3q0 -47 16.5 -91t46 -77.5t70.5 -53.5t91 -20q38 0 73.5 16.5t64.5 43.5t49 61t28 69q7 15 7 62q0 45 -16.5 79t-45 58.5t-68.5 39t-86 20.5h-3q-7 1 -13 1.5t-12 0.5h-11v89q43 9 88.5 29.5t83 52t61.5 73t24 92.5 q0 37 -12 73t-34 64.5t-54.5 46t-72.5 17.5q-66 0 -113 -38t-67 -98q-9 -27 -12 -52.5t-4 -48.5h-175v62q0 17 2 34t6 36q14 66 49 120t85 91.5t111.5 58t128.5 20.5q73 0 134.5 -24.5t106.5 -69t70.5 -106t25.5 -135.5q0 -96 -39 -167t-111 -134l-3 -8v-1q38 -26 67.5 -53 t49.5 -59.5t30.5 -71t10.5 -86.5q0 -84 -31.5 -163.5t-87 -142t-130 -100t-160.5 -37.5q-77 0 -148 29.5t-126 80.5t-89 119.5t-37 146.5z"/>
<glyph unicode="4" horiz-adv-x="1004" d="M100 126v167l346 858h293v-862l11 -10h164v-154h-164l-11 -10v-332h-188l-1 333l-10 10h-440zM299 293l9 -13h232l10 10l-2 642l-20 3z"/>
<glyph unicode="5" horiz-adv-x="1014" d="M100 129h190q25 -72 79.5 -116.5t135.5 -44.5q42 0 81.5 16.5t69.5 45.5t48.5 68t18.5 83q0 59 -1.5 94.5t-3.5 56t-4 30.5l-5 17h-1q-11 31 -32.5 56.5t-48.5 43.5t-58.5 27.5t-63.5 9.5q-70 0 -130 -30.5t-98 -87.5h-173l1 745h732v-182l-540 1l-10 -10v-296l14 -9 q51 23 99.5 39t103.5 16q64 0 125 -20t112 -56t89.5 -86.5t58.5 -111.5q14 -42 19.5 -80.5t5.5 -80.5q0 -27 -2 -54t-4 -58q-5 -79 -40 -147t-90 -118t-126 -78.5t-147 -28.5q-63 0 -123 17t-111 49.5t-90.5 80t-61.5 107.5q-8 23 -13.5 46.5t-5.5 45.5z"/>
<glyph unicode="6" horiz-adv-x="1024" d="M100 604q0 63 3 119.5t15 116.5q15 69 52.5 126.5t90.5 99t118 64.5t135 23q90 0 165.5 -32.5t130 -89t84.5 -132.5t30 -164q0 -7 -0.5 -8t-0.5 -8l-185 1q-1 23 -2.5 44t-6.5 41v1q-10 36 -31 66.5t-49.5 52.5t-63.5 34t-73 12q-41 0 -80.5 -17.5t-70.5 -47t-49.5 -67.5 t-18.5 -80q0 -32 -0.5 -63t-0.5 -61v-123l17 -7q45 48 101 66t119 18q85 0 156.5 -31.5t123.5 -86t81 -128t29 -156.5q0 -86 -31 -160t-86 -129t-129 -86.5t-160 -31.5q-62 0 -122.5 18.5t-111.5 52.5t-90 82.5t-59 109.5h-1q-11 31 -16.5 62t-7.5 66v34q0 34 -1 80.5 t-1 100.5q0 34 -0.5 68t-1 63.5t-1 52t-0.5 34.5zM292 189q0 -47 17 -87.5t46.5 -70.5t69.5 -47.5t87 -17.5q46 0 86.5 17t70.5 47t47.5 70t17.5 86t-17.5 86t-47.5 69.5t-71 46t-87 16.5q-44 0 -83.5 -14t-69.5 -40.5t-48 -65.5t-18 -89v-6z"/>
<glyph unicode="7" horiz-adv-x="949" d="M100 875l1 263h782l-64 -198l-491 -1140h-210l520 1138l-9 14h-325l-9 -7l-19 -70h-176z"/>
<glyph unicode="8" horiz-adv-x="1021" d="M100 192q0 39 6.5 76.5t24.5 71.5t49.5 64t81.5 55l1 18q-89 62 -126 130t-37 148q0 82 32.5 154.5t88 127t129 86t155.5 31.5q81 0 155 -31t130.5 -84t90 -125.5t33.5 -154.5q0 -88 -44.5 -161.5t-116.5 -122.5l2 -18q78 -37 122 -99t44 -153q0 -87 -30 -164t-84 -134 t-129 -90.5t-164 -33.5q-83 0 -157.5 32.5t-131 88t-90 130t-35.5 158.5zM289 187q2 -48 19 -88t46 -69t69 -45.5t87 -16.5q49 0 90 18.5t70 50.5t45 74t16 89q0 48 -17.5 84t-47.5 59t-70 34.5t-85 11.5h-11q-42 0 -80.5 -13t-67.5 -38t-46 -60t-17 -78v-13zM290 766 q0 -36 21.5 -81t54.5 -85.5t73 -68t77 -27.5h1q20 0 43.5 13t46.5 33.5t44.5 47t38 53.5t26.5 52t10 43v1q0 44 -16.5 84.5t-45.5 71.5t-68.5 49.5t-85.5 18.5q-41 0 -80.5 -15.5t-70.5 -43.5t-50 -65.5t-19 -80.5z"/>
<glyph unicode="9" horiz-adv-x="1021" d="M100 204v12l184 -1q1 -20 2.5 -40t7.5 -44v-1q10 -36 31.5 -66t50 -52t63.5 -34t72 -12q41 0 80.5 17.5t70 46.5t49.5 67.5t19 80.5q1 16 1 32v30v61v61v30q0 16 1 32l-17 7q-45 -45 -100 -64.5t-115 -19.5h-5q-84 0 -155 31t-123.5 84.5t-82 125.5t-29.5 155v6 q0 85 31.5 159t86 129t128.5 87t159 32q64 0 124 -18.5t111 -53t90 -83.5t61 -109q11 -30 15.5 -61.5t7.5 -65.5v-216q0 -24 0.5 -46.5t0.5 -44.5q0 -26 0.5 -49.5t0.5 -41.5v-68q-1 -52 -3 -100.5t-13 -102.5q-15 -69 -52.5 -126.5t-90.5 -99t-118 -64.5t-135 -23 q-90 0 -165 33t-129.5 90t-84.5 134t-30 164zM290 751q0 -47 17 -87.5t47 -69.5t70 -45.5t87 -16.5q45 0 85 14t70 41t47.5 66t17.5 89v6q0 46 -17 86.5t-46.5 71t-70 48.5t-87.5 18q-45 0 -85 -17.5t-70 -48t-47.5 -70.5t-17.5 -85z"/>
<glyph unicode=":" horiz-adv-x="592" d="M145 463q-2 4 13.5 29.5t37 55.5t42 53.5t28.5 23.5q4 0 31 -17l57 -40q31 -21 55.5 -40.5t24.5 -25.5q0 -10 -15.5 -37t-36 -54.5t-42 -50t-31.5 -24.5l-85 60q-44 30 -79 67zM160 -80q-2 4 13 29.5t36.5 55.5t42 53.5t29.5 23.5q4 0 31 -18l56 -38q31 -22 56 -41.5 t25 -25.5q0 -10 -15.5 -36.5t-36 -54.5t-42 -50.5t-31.5 -24.5l-85 59q-44 31 -79 68z"/>
<glyph unicode=";" horiz-adv-x="586" d="M137 254q-8 70 17.5 156t76.5 178q13 33 40.5 65.5t51 50t31.5 8t-16 -60.5l-26 -51q-17 -31 -33.5 -66.5t-27.5 -75.5t-11 -79q0 -49 36 -80q17 -14 27 -4t23 43q6 16 20 25.5t31.5 10.5t33 -8.5t23.5 -27.5q2 -113 -41 -171t-97 -66.5t-102.5 31.5t-56.5 122zM154 -291 q-2 4 13 29.5t36.5 55.5t42 53.5t28.5 23.5q5 0 32 -17l56 -40q31 -21 55.5 -40.5t24.5 -25.5q0 -10 -15 -36.5t-35.5 -54.5t-42 -50.5t-32.5 -24.5l-85 60q-44 30 -78 67z"/>
<glyph unicode="&lt;" horiz-adv-x="1032" d="M143 430l742 461v-123l-547 -340l551 -336l-2 -123z"/>
<glyph unicode="=" horiz-adv-x="969" d="M143 428v123h680l-2 -123h-678zM145 170v123q134 0 314 1t366 1l-2 -125h-678z"/>
<glyph unicode="&gt;" horiz-adv-x="1032" d="M143 92l551 336l-547 340v123l742 -461l-744 -461z"/>
<glyph unicode="?" horiz-adv-x="870" d="M143 635q0 65 21.5 125.5t61.5 106.5t96.5 74t123.5 28q46 0 96 -14.5t91 -43t67.5 -70.5t26.5 -96q0 -55 -37 -102t-98 -47q-51 0 -84 31.5t-33 81.5q0 55 37 88.5t90 33.5q10 0 19.5 -1t19.5 -7q2 -4 2 0q0 6 -2 8q-23 17 -48.5 31.5t-53.5 14.5q-50 0 -95 -20.5 t-76.5 -54.5t-50 -79t-16.5 -94q2 -47 21.5 -87t47 -77t56.5 -71t49 -68q29 -45 41 -94.5t12 -102.5q0 -45 -11 -96t-42 -84q0 18 1 36.5t1 39.5q4 57 -12 112.5t-57 95.5q-48 50 -94 89.5t-85 84t-62.5 98.5t-23.5 130zM362 -195q0 39 30 66t67 27q47 0 77.5 -29t30.5 -76 q0 -35 -27.5 -66.5t-66.5 -31.5q-47 0 -79 31.5t-32 78.5z"/>
<glyph unicode="@" horiz-adv-x="1444" d="M152 244q6 123 53 230.5t124 187t179 124.5t223 45q131 0 242.5 -60t187.5 -157.5t107.5 -221.5t1.5 -251q-13 -53 -43.5 -118.5t-74.5 -124t-98.5 -98.5t-113.5 -40q-39 0 -67.5 16.5t-49 43t-34 60.5t-19.5 69q-16 -12 -31.5 -36t-25.5 -38q-25 -27 -58.5 -45 t-68.5 -18q-62 0 -99.5 31.5t-59 78.5t-30 101.5t-8.5 101.5q0 55 9.5 130t36 142.5t74.5 114.5t124 47q35 0 69.5 -16.5t57.5 -44.5q2 24 14 45.5t29.5 39t38 32t37.5 28.5q16 12 16 0v-29q0 -18 1 -40.5t1 -43.5v-26q0 -115 -9 -226.5t-9 -228.5q0 -22 6 -51t18 -54.5 t31.5 -44t48.5 -18.5q70 0 119 40t79.5 99.5t45 128t14.5 123.5q0 105 -41 197t-111.5 162.5t-164 111.5t-197.5 41q-152 0 -261.5 -64.5t-175 -167.5t-86 -235.5t6.5 -267.5q18 -92 67.5 -171t119 -136t155.5 -90t180 -33q80 0 145.5 18.5t121 51t104.5 78t98 98.5 q4 4 9.5 5t0.5 -15q0 -19 -13 -40.5t-30.5 -42t-35 -38t-29.5 -25.5q-98 -80 -210 -111.5t-221.5 -19.5t-207.5 64.5t-171 139.5t-112 203.5t-30 258.5zM471 195q2 -39 14.5 -77t35 -69t56 -50t76.5 -19q47 0 69.5 25.5t31 63t7.5 78.5t-1 72v62q0 38 -8.5 76t-26.5 66 t-57 28q-50 0 -87.5 -24t-62 -61.5t-36 -82.5t-11.5 -88z"/>
<glyph unicode="[" horiz-adv-x="872" d="M134 -161.5q1 155.5 1 323.5q0 170 1 346t1 344v328q0 157 -2 288q0 70 12.5 109t40 57.5t72.5 21.5t115 3h358v-154h-368l-3 -1986h369v-154h-356q-70 0 -115 3t-72.5 20.5t-40 55.5t-12.5 107q-2 132 -1 287.5z"/>
<glyph unicode="\" horiz-adv-x="1186" d="M143 887l215 -129l684 -1235q-55 33 -102 58.5t-115 66.5l-127 230l-111 202l-103 187l-102 187l-110 202z"/>
<glyph unicode="]" horiz-adv-x="885" d="M143 1522v153h359q69 0 114.5 -3t73 -21.5t39.5 -57.5t12 -108q-2 -133 -2 -291v-326q0 -168 1 -344t1 -346v-323v-287q0 -70 -12 -108t-39.5 -55t-73 -20t-114.5 -3h-357v153h369l-2 1987h-369z"/>
<glyph unicode="^" horiz-adv-x="1004" d="M143 551l359 577l358 -577h-123l-237 383l-234 -383h-123z"/>
<glyph unicode="_" horiz-adv-x="1491" d="M143 -2h277h328h325h275v-125l-1205 2v123z"/>
<glyph unicode="`" horiz-adv-x="449" d="M85 1548.5q-1 12.5 1 14.5q8 6 30.5 -7.5t49.5 -38t56.5 -58.5t49.5 -68q29 -50 56.5 -103t15.5 -88q-53 78 -89 125t-62.5 73.5t-47 42t-41.5 34.5q-2 4 -7 18t-8 28.5t-4 27z"/>
<glyph unicode="{" horiz-adv-x="979" d="M160 553q22 6 58 28.5t70 56.5t54 76t12 85q0 20 -2 79l-4 126q-2 65 -4 122.5t-2 75.5q0 105 23.5 189t73.5 143t128 92t187 33q2 0 17 -1t30.5 -4t25 -7.5t0.5 -8.5l-55 -18q-108 -43 -150 -129t-47 -197q-2 -51 -1 -117.5t-2 -138t-12 -143.5t-30.5 -133.5 t-57.5 -108.5t-93 -69q-23 -11 -53.5 -18t-57.5 -11q27 -4 57.5 -11t53.5 -18q59 -22 96 -69t57.5 -109.5t28.5 -133.5t11 -142.5t2 -138t1 -117.5q5 -111 47 -197t150 -129l55 -18q9 -4 -0.5 -8.5t-25 -7.5t-30.5 -4t-17 -1q-109 0 -187 33t-128 92t-73.5 143t-23.5 189 q0 18 2 75.5t4 123t4 124t2 80.5q2 41 -13 79t-43 71t-63.5 56.5t-74.5 35.5z"/>
<glyph unicode="|" horiz-adv-x="492" d="M182 -567v1982h125l-2 -1982h-123z"/>
<glyph unicode="}" horiz-adv-x="885" d="M157.5 -543q-10.5 4 0.5 8l55 19q109 43 151 129t46 197q2 77 1 184.5t13 213t54 191.5t128 121q23 10 53.5 17.5t57.5 11.5q-27 4 -57.5 11t-53.5 18q-57 22 -94 69t-57.5 108.5t-29.5 133.5t-12 143.5t-2 138t-1 117.5q-4 111 -46 197t-151 129l-55 18q-11 4 -0.5 8.5 t26 7.5t30.5 4t17 1q109 0 187 -33t128 -92.5t73.5 -143.5t23.5 -188q0 -18 -2 -75.5t-4 -122.5l-4 -126q-2 -59 -2 -79q-8 -43 13.5 -85t53 -76t68.5 -56.5t59 -28.5q-39 -12 -74.5 -36t-63.5 -56.5t-43 -70.5t-13 -79q0 -22 2 -80.5t4 -124t4 -123t2 -75.5 q0 -105 -23.5 -189t-73.5 -143t-128 -92t-187 -33q-2 0 -17 1t-30.5 4t-26 7z"/>
<glyph unicode="~" horiz-adv-x="928" d="M164 150q8 26 25.5 54.5t40 53.5t51 41t61.5 16q20 0 38 -7l34 -14l36 -14q19 -8 44 -8q81 0 147 32t125 85q-18 -47 -50 -86t-74 -67.5t-90 -45t-99 -16.5q-27 0 -49.5 8t-43 19.5t-39 19.5t-38.5 8q-25 0 -41.5 -8t-29.5 -19.5t-24.5 -25.5t-23.5 -26z"/>
<glyph unicode="¡" d="M-123 293q0 8 4 30.5t10.5 46t13.5 41t15 17.5v-29q0 -16 5 -34.5t15.5 -34t20.5 -18.5t16.5 18.5t18.5 47t30.5 48.5t45.5 25q18 0 35.5 -8.5t33.5 -8.5q11 0 17 6t14 6t10 -3t-2 -17q-24 -53 -49 -99t-52.5 -78t-61 -46.5t-80.5 -3.5q-5 -49 -10 -84t-17 -80 q-4 -12 -10 -24.5t-19 -14.5q0 37 4 73.5t4 73.5q0 39 -5 75t-7 75zM-10 305q26 -2 67 15.5t64 46.5q-17 6 -34 13t-34 7q-16 0 -27.5 -10t-18.5 -24.5t-11 -28t-6 -19.5zM57 100q0 9 8.5 22t19.5 26.5t22.5 22.5t19.5 9h6q12 -10 31.5 -28.5t36.5 -28.5v-2q0 -6 -9.5 -18.5 t-21.5 -26t-23.5 -24.5t-17.5 -15l-2 -2q-4 0 -15.5 8t-23.5 18.5t-21.5 21.5t-9.5 17z"/>
<glyph unicode="­" horiz-adv-x="963" d="M143 283v123q133 0 311.5 1t364.5 1v-125h-676z"/>
<glyph unicode="؀" horiz-adv-x="1134" d="M-2164 -283q2 7 40 8.5t112 0.5l266 -6q125 -2 236.5 -4.5t212.5 -3.5t196 -1q105 0 206 2t202.5 7.5t207.5 13.5t222.5 20.5t245.5 29.5t277 39q-3 48 1 100t15.5 103.5t30.5 99t46 86.5q55 78 125 136.5t151 82.5q9 4 12 1t3 -9t-2.5 -13t-4.5 -10l-53 -62l-64 -74 q-31 -39 -58.5 -79t-41.5 -76q-19 -46 -7.5 -86.5t43.5 -75.5t78 -63.5t96 -50t98 -35.5t84 -20q14 -2 16.5 -7t0.5 -12t-6.5 -14.5t-4.5 -14.5q-19 -23 -33.5 -35t-28 -22t-28 -22t-33.5 -34q-3 -8 -7.5 -12.5t-19.5 -4.5q-44 7 -93.5 22t-101.5 27.5t-104 16.5t-101 -11 q-149 -46 -283 -78.5t-260 -52.5t-247 -29.5t-245 -9.5q-126 0 -254 8t-273 22q-101 9 -192 19t-179.5 25t-178.5 38.5t-188 59.5q-68 25 -101 39t-31 21z"/>
<glyph unicode="؁" horiz-adv-x="940" d="M-3666 -1119q19 86 55.5 179.5t94 171t133.5 131t172 59.5q26 2 52 -8t49.5 -23.5t47 -24.5t45.5 -11q64 0 113 26.5t89 68.5t74 91l64 94q21 29 52.5 45.5t66.5 11.5q158 -45 283 -75.5t236.5 -48t218 -22.5t227.5 -2t265 15.5t331 30.5q98 8 211.5 30.5t229.5 53.5 t227.5 67.5t207.5 73.5q236 86 420 223.5t348 329.5q2 6 9.5 11.5t14.5 7.5t12 0t5 -15q0 -28 -20.5 -65t-30.5 -58q-61 -116 -149.5 -216.5t-191.5 -185.5t-217 -157.5t-226 -136.5q-383 -166 -789.5 -244.5t-820.5 -78.5q-141 0 -275.5 8t-269.5 24q-69 9 -131.5 23 t-113 44t-85 78t-49.5 122l-21 -47l-29 -70l-29 -70q-13 -33 -19 -45q-16 -43 -45 -85t-68 -74.5t-85 -52t-97 -19.5q-53 0 -102.5 25.5t-98.5 41.5q-28 11 -60 5.5t-62.5 -19.5t-59.5 -33.5t-49 -38.5l-83 -86z"/>
<glyph unicode="؂" d="M-836 51q2 27 21.5 64t47 70.5t58 57t57.5 27.5q27 0 37 -25.5t10 -47.5q0 -43 -13 -81t-30 -79q41 -10 78 -10h74q110 4 209.5 18t197.5 37q23 6 19 0t-25 -21q-113 -55 -229.5 -81.5t-241.5 -30.5q-22 0 -66.5 2t-88.5 12t-78.5 30.5t-36.5 57.5zM-787 102 q4 -12 19.5 -23t34 -19.5t36.5 -13.5t29 -5q2 4 3 23.5t-1 41t-7.5 38t-17.5 16.5q-26 -2 -52 -21.5t-44 -36.5z"/>
<glyph unicode="؃" horiz-adv-x="1213" d="M104 28.5q-1 12.5 40 22.5q101 17 198 37.5t198 69.5q30 18 46.5 32.5t27 25.5t16.5 18.5t16 9.5q8 0 15.5 -7.5t17.5 -16.5t25.5 -18t43.5 -9q5 6 15 22t22.5 33.5t22.5 34t14 22.5q12 19 29.5 39.5t38 38.5t44 30.5t48.5 12.5q43 0 65.5 -26.5t22.5 -67.5 q0 -66 -27.5 -123t-72.5 -100t-105.5 -68t-124.5 -25q-78 2 -108.5 36t-36.5 95q-33 -43 -58.5 -69.5t-56.5 -43t-69.5 -24.5t-96.5 -10q-51 0 -87 1t-87 9q-35 6 -36 18.5zM773 186q16 0 53 4.5t78 17.5t79 35.5t58 57.5q-16 35 -59 44t-72 -9q-47 -23 -78 -67z"/>
<glyph unicode="،" horiz-adv-x="514" d="M117 131q-8 70 17.5 156t76.5 178q12 33 40 65.5t51.5 50t31.5 8.5t-17 -61q-12 -24 -37.5 -70t-43 -98.5t-17.5 -103.5q0 -49 37 -80q16 -14 26.5 -4t22.5 43q6 16 20.5 25.5t32 10.5t33 -8.5t23.5 -27.5q2 -113 -41 -171t-97.5 -66.5t-102.5 31.5t-56 122z"/>
<glyph unicode="؍" horiz-adv-x="216" d="M33 999q15 61 48 118.5t71 108.5q16 21 35 43t41 39t48 27t56 8q34 -7 34 -36q0 -6 -4.5 -22.5t-12 -36t-16.5 -38t-19 -28.5q-10 -15 -19.5 -13t-19.5 12q-15 13 -30.5 12t-30 -10t-27.5 -23l-23 -23q-32 -32 -57.5 -71t-53.5 -75q-12 -16 -18.5 -12.5t-1.5 20.5z"/>
<glyph unicode="؎" horiz-adv-x="938" d="M74 51q2 27 21.5 64t47.5 70.5t58.5 57t57.5 27.5q26 0 36.5 -25.5t10.5 -47.5q0 -43 -13.5 -81t-29.5 -79q41 -10 78 -10h73q111 4 210.5 18t197.5 37q22 6 18 0t-24 -21q-113 -55 -229.5 -81.5t-241.5 -30.5q-23 0 -67 2t-88 12t-79 30.5t-37 57.5zM124 102 q4 -12 19 -23t33.5 -19.5t37 -13.5t28.5 -5q2 4 3 23.5t-1 41t-7 38t-17 16.5q-27 -2 -52.5 -21.5t-43.5 -36.5z"/>
<glyph unicode="؏" horiz-adv-x="1112" d="M80 -244q16 37 56 116l110 208q-60 98 -60 211q0 125 42 248t118 221q-20 16 -48 41.5t-28 56.5q0 41 22 70l46 59q14 25 31.5 52.5t38 52t46 41t60.5 16.5q23 0 54.5 -15.5t31.5 -43.5q0 -17 -9 -33.5t-30 -16.5q-22 0 -42.5 13.5t-45.5 13.5q-22 -4 -53 -22.5 t-33 -49.5q0 -20 14.5 -35.5t34 -25.5t42 -15.5t40.5 -5.5q6 0 12.5 2.5t24.5 11.5l53 27l97 54q16 6 14 -3.5t-8 -21.5q-17 -22 -41 -41l-39 -29l-127 -90q-66 -47 -120 -103t-89 -123t-35 -151q0 -53 13.5 -109t45.5 -97q37 67 91.5 144t119 142.5t138 109.5t151.5 44 q35 0 62.5 -16.5t47 -42t30 -57.5t10.5 -62q-4 -56 -24.5 -113t-51.5 -109.5t-68 -99.5t-69 -82q-58 -57 -128.5 -94t-154.5 -37q-55 0 -105.5 20.5t-91.5 55.5l-26 -46l-36 -67l-36 -64q-16 -30 -24 -42q-4 -8 -11.5 -19.5t-17.5 -22.5t-21.5 -18.5t-23.5 -7.5zM369 197 q28 -31 70 -41.5t81 -10.5q111 2 202 64.5t159 142.5q10 15 20 28t10 30q-4 30 -18 51.5t-34.5 34t-45.5 17.5t-49 5q-64 0 -122 -32.5t-108.5 -81t-92.5 -104.5t-72 -103z"/>
<glyph unicode="ؐ" d="M-149 0q0 23 2 44l4 44q3 54 5.5 111.5t-5.5 117.5q4 19 10 37.5t10 34.5q2 4 5 5t5 -5q4 -24 18.5 -42.5t43.5 -18.5l27 42q11 19 22 34t23 28.5t27 28.5q17 17 39.5 26t43.5 9q13 0 24 -6t18.5 -15.5t11.5 -21t4 -23.5q0 -16 -4.5 -32t-9.5 -31q-14 -43 -43.5 -75 t-66.5 -52t-77 -26.5t-76 1.5q-4 -60 -18.5 -114.5t-35.5 -100.5q-1 -4 -4 -4t-3 4zM-20 320q25 -2 55.5 5.5t57.5 20.5t46 29.5t21 32.5q-5 13 -16.5 19.5t-26 7t-30.5 -5t-29 -15.5q-24 -19 -42.5 -46t-35.5 -48z"/>
<glyph unicode="ؑ" d="M-107 15q9 34 10.5 67.5t-1 67t-6 67.5t-3.5 68q0 35 10 63l22 60q8 20 13.5 15t1.5 -22q1 -14 -0.5 -33.5t0.5 -37.5q2 -17 7.5 -29t26.5 -14q11 18 19.5 39t23.5 46q18 33 40 55t56 22q16 0 29.5 -11t13.5 -27q0 -11 -8 -16t-20 -5t-18 2.5t-24 2.5q-10 0 -20 -7 t-18.5 -17.5t-14.5 -22.5t-7 -22q1 -49 57 -49q27 7 52.5 26.5t42.5 39.5q3 7 8.5 10t9 1.5t3.5 -7.5t-8 -18l-31 -54q-17 -27 -36.5 -48.5t-44 -37t-56.5 -20.5q-16 -3 -35 -2.5t-42 3.5q-4 -43 -11.5 -81t-23.5 -77q-8 -17 -17 -17t-1 20z"/>
<glyph unicode="ؒ" d="M-188 215q0 2 9 21.5t15 29.5q23 35 44.5 55.5t44 30.5t49 13.5t61.5 3.5q45 -4 59.5 -6.5t7.5 -26.5q-4 -10 -16 -24.5t-23 -24.5l-89 -84q-44 -43 -74 -97q-9 -10 -20 -39.5t-23 -58.5q-4 -10 -10.5 -12t-4.5 8q15 88 58 161t108 132q-6 4 -16 5t-15 1q-47 0 -88 -16 q-24 -13 -36.5 -31t-26.5 -41q-6 -10 -13.5 -14t-0.5 14zM-19 53q1 6 29 29l50 36q26 17 36 23q51 35 76 90.5t41 114.5q4 6 8 7t6 -9q-2 -27 -9 -54l-13 -48q-17 -45 -26 -76t-22.5 -50.5t-38 -32.5t-67.5 -22q-26 -8 -47 -10q-24 -4 -23 2z"/>
<glyph unicode="ؓ" d="M-225 8q0 23 2 44l4 44v230q4 18 10 36.5t10 34.5q0 4 4.5 5t6.5 -5q4 -24 18 -42.5t43 -18.5q18 18 37.5 47t42 55.5t47.5 46t55 19.5q27 0 39 -21.5t12 -44.5q0 -16 -5 -31.5t-11 -31.5q-16 -41 -45 -73t-63.5 -52.5t-72.5 -27.5t-73 1q-2 -14 -6 -48t-6 -44 q-4 -12 -14 -45l-13 -47q-4 -6 -16 -31q-6 -6 -6 0zM-158 625q0 6 8.5 19t18.5 26.5t21.5 25t15.5 11.5h2q2 0 8 -4.5t8 -6.5l56 -45v-16l-62 -76q-4 0 -26 17l-35 28q-9 8 -12 10t-3 11zM-100 336q24 -2 55 4t59.5 18.5t48 27.5t21.5 30q-2 10 -16.5 17t-30.5 7 q-25 0 -44.5 -10t-36.5 -25.5t-30.5 -35t-25.5 -33.5zM-31 154q8 6 27 18l40 26l40 26q20 12 26 18q54 34 77.5 89.5t39.5 114.5q4 7 9 8t5 -10q-2 -26 -8 -52.5t-14 -49.5q-14 -45 -25.5 -74.5t-26 -49t-38 -32t-62.5 -24.5q-16 -4 -37.5 -10.5t-39.5 -8.5q-35 -6 -13 11z "/>
<glyph unicode="ؔ" d="M-409 -46q1 7 14 7q86 8 177 14.5t173 38.5q18 9 40.5 22t39.5 25q31 25 60.5 53.5t72.5 26.5q22 2 31.5 -7t23.5 -13q19 4 28 23.5t19 29.5q4 4 6 4q5 0 5 -10q-5 -21 -15 -42.5t-22.5 -37.5t-25.5 -26.5t-23 -8.5q-9 0 -13 2t-9 4t-13 3t-25 1q-29 -4 -51.5 -17 t-46.5 -30q-57 -47 -125 -65.5t-154 -24.5q-37 0 -76.5 3t-74.5 14q-17 4 -16 11z"/>
<glyph unicode="ؕ" d="M-266.5 -235.5q-12.5 4.5 12.5 18.5q41 22 66.5 38.5t52.5 39.5q20 39 34.5 91t14.5 89q0 12 1 43t5 61.5t5 58t1 42.5q19 41 36.5 86t31.5 71q8 31 14 31q0 -74 -1 -116t-2 -74.5t-2 -56t-3 -64.5q20 27 38.5 36t57.5 13q39 -6 58.5 -33.5t17.5 -46.5q-16 -51 -37 -90 l-35 -60q-18 -34 -46 -62l-48 -48q-20 -22 -35 -27q-8 0 -33.5 -6t-64.5 -13t-64.5 -13t-33.5 -6q-29 -7 -41.5 -2.5zM-86 -121q25 12 59.5 32.5t66.5 42t51.5 44t25.5 45.5q-6 27 -18.5 32t-30.5 5q-45 -4 -65.5 -23.5t-39 -46t-31 -60.5t-18.5 -71z"/>
<glyph unicode="؛" horiz-adv-x="586" d="M137 254q-8 70 20.5 152.5t73.5 181.5q15 30 42.5 64t51 50.5t30.5 8t-17 -59.5l-26 -51q-17 -31 -33.5 -66.5t-27.5 -75.5t-11 -79q0 -49 36 -80q17 -14 27 -4t23 43q6 16 20 25.5t31.5 10.5t33 -8.5t23.5 -27.5q2 -113 -41 -171t-97 -66.5t-102.5 31.5t-56.5 122z M154 -291q-2 4 13 29.5t36.5 55.5t42 53.5t28.5 23.5q5 0 32 -17l56 -40q31 -21 55.5 -40.5t24.5 -25.5q0 -10 -15 -36.5t-35.5 -54.5t-42 -50.5t-32.5 -24.5l-85 60q-44 30 -78 67z"/>
<glyph unicode="؟" horiz-adv-x="870" d="M143 635q0 65 21.5 125.5t61.5 106.5t96.5 74t123.5 28q46 0 96 -14.5t91 -43t67.5 -70.5t26.5 -96q0 -55 -37 -102t-98 -47q-51 0 -84 31.5t-33 81.5q0 55 37 88.5t90 33.5q10 0 19.5 -1t19.5 -7q2 -4 2 0q0 6 -2 8q-23 17 -48.5 31.5t-53.5 14.5q-50 0 -95 -20.5 t-76.5 -54.5t-50 -79t-16.5 -94q2 -47 21.5 -87t47 -77t56.5 -71t49 -68q29 -45 41 -94.5t12 -102.5q0 -45 -11 -96t-42 -84q0 18 1 36.5t1 39.5q4 57 -12 112.5t-57 95.5q-48 50 -94 89.5t-85 84t-62.5 98.5t-23.5 130zM362 -195q0 39 30 66t67 27q47 0 77.5 -29t30.5 -76 q0 -35 -27.5 -66.5t-66.5 -31.5q-47 0 -79 31.5t-32 78.5z"/>
<glyph unicode="ء" horiz-adv-x="985" d="M145 -133q-8 86 37 161.5t94 143.5l-55 32q-37 21 -63 66q-35 58 0 115l30 51l48 77l50 75l33 47q31 43 82.5 88t114.5 45q39 0 84 -25.5t45 -72.5q0 -35 -30.5 -57.5t-63.5 -22.5q-25 0 -49.5 18.5t-65.5 18.5q-39 0 -76.5 -20.5t-44.5 -69.5q-4 -19 14.5 -42.5t46 -45 t62.5 -32.5t66 -11q76 12 138 58l120 89q100 61 14 -51q-51 -70 -114 -124l-128 -104l-132 -107q-68 -56 -128 -132q-12 -17 -33.5 -44.5t-43.5 -82.5q-9 -27 -26 -42.5t-26 1.5z"/>
<glyph unicode="آ" horiz-adv-x="465" d="M-238 1812q0 58 33 137t85 150.5t116.5 121.5t126.5 50q31 0 56.5 -11t51.5 -24q76 -30 157 -21t153.5 46t131 94.5t93.5 124.5q12 12 14 0q0 -43 -14 -84t-33 -82q-35 -76 -86 -148.5t-115.5 -130t-142.5 -92t-168 -34.5q-63 0 -115.5 24.5t-105.5 55.5 q-39 12 -71.5 -3.5t-59.5 -43t-49 -60.5l-39 -55q-8 -15 -19 -15zM180 1233l4 78q2 39 5.5 69.5t3.5 34.5q2 25 15 67t30 88l30 89q15 43 21 70q10 34 17 38.5t3 -22.5q4 -291 5 -566.5t1 -566.5q0 -131 -31.5 -257t-86.5 -244q-7 -11 -12 -9t-3 19l11 153q-3 193 -4 339.5 t-2 255t-2 182t-3 118.5q-4 25 -2 64z"/>
<glyph unicode="أ" horiz-adv-x="420" d="M5 1863q6 25 15.5 50.5t21.5 54.5q14 -11 35.5 -23t44.5 -12q37 0 56.5 33.5t40 75.5t49 77t87.5 35q9 0 24 -4t28 -14q-13 -31 -29 -65t-33 -60q-18 0 -43.5 -5.5t-50.5 -23.5q-18 -18 -32.5 -46t-33 -52.5t-44 -43t-62.5 -18.5q-25 0 -43 14.5t-31 26.5zM136 1254.5 q-1 70.5 18 129.5l90 293q4 -4 7 -46t5 -107.5t4 -147.5t3 -166t3 -161.5t4 -135.5v-182q0 -133 -13 -261t-62 -259l-21 -48q-14 -32 -27 -44q0 71 3.5 144t3.5 145q0 180 -8.5 358t-8.5 358q0 60 -1 130.5z"/>
<glyph unicode="ؤ" horiz-adv-x="610" d="M-97 -113q-1 4 5 11.5t15 14.5t16 11q47 37 101 75l110 78l109 83t101 90q17 31 0.5 48t-43.5 21l-41 -18q-18 -8 -43 -8q-30 0 -61 13t-53.5 34.5t-36.5 50.5t-14 60v24q0 8 4 23q22 65 46 128l46 128q10 28 37.5 49.5t60.5 21.5q55 0 93 -41t62.5 -99t35 -120.5 t10.5 -103.5q0 -33 -3 -64.5t-14 -62.5q-16 -47 -32.5 -85t-35 -75t-40.5 -75l-45 -83q-10 -22 -27 -26l-172 -52l-176 -55q-14 0 -15 4zM40 1178q6 25 15.5 50.5t21.5 54.5q14 -11 35.5 -23t44.5 -12q37 0 56.5 33.5t40 75.5t49 77t87.5 35q9 0 24 -4t28 -14 q-13 -31 -29 -65t-33 -60q-18 0 -43.5 -5.5t-50.5 -23.5q-18 -18 -32.5 -46t-33 -52.5t-44 -43t-62.5 -18.5q-25 0 -43 14.5t-31 26.5z"/>
<glyph unicode="ئ" horiz-adv-x="1743" d="M145 121q0 -42 28.5 -70.5t70.5 -28.5t70.5 28.5t28.5 70.5t-28.5 70.5t-70.5 28.5t-70.5 -28.5t-28.5 -70.5zM186 383q0 -42 28.5 -70.5t70.5 -28.5t70.5 28.5t28.5 70.5t-28.5 70.5t-70.5 28.5t-70.5 -28.5t-28.5 -70.5zM188 -141q0 -42 28.5 -70.5t70.5 -28.5 t70.5 28.5t28.5 70.5t-28.5 70.5t-70.5 28.5t-70.5 -28.5t-28.5 -70.5zM273 608q0 -42 28.5 -70.5t70.5 -28.5t70.5 28.5t28.5 70.5t-28.5 70.5t-70.5 28.5t-70.5 -28.5t-28.5 -70.5zM320 -368q0 -42 28.5 -70.5t70.5 -28.5t70.5 28.5t28.5 70.5t-28.5 70.5t-70.5 28.5 t-70.5 -28.5t-28.5 -70.5zM525 -499q0 -42 28.5 -70.5t70.5 -28.5t70.5 28.5t28.5 70.5t-28.5 70.5t-70.5 28.5t-70.5 -28.5t-28.5 -70.5zM548 1171q6 25 15.5 50.5t21.5 54.5q14 -11 35.5 -23t44.5 -12q37 0 56.5 33.5t40 75.5t49 77t87.5 35q9 0 24 -4t28 -14 q-13 -31 -29 -65t-33 -60q-18 0 -43.5 -5.5t-50.5 -23.5q-18 -18 -32.5 -46t-33 -52.5t-44 -43t-62.5 -18.5q-25 0 -43 14.5t-31 26.5zM767 -510q0 -42 28.5 -70.5t70.5 -28.5t70.5 28.5t28.5 70.5t-28.5 70.5t-70.5 28.5t-70.5 -28.5t-28.5 -70.5zM984 -388 q0 -42 28.5 -70.5t70.5 -28.5t70.5 28.5t28.5 70.5t-28.5 70.5t-70.5 28.5t-70.5 -28.5t-28.5 -70.5zM1006 580q0 -42 28.5 -70.5t70.5 -28.5t70.5 28.5t28.5 70.5t-28.5 70.5t-70.5 28.5t-70.5 -28.5t-28.5 -70.5zM1067 343q0 -42 28.5 -70.5t70.5 -28.5t70.5 28.5 t28.5 70.5t-28.5 70.5t-70.5 28.5t-70.5 -28.5t-28.5 -70.5zM1071 816q0 -42 28.5 -70.5t70.5 -28.5t70.5 28.5t28.5 70.5t-28.5 70.5t-70.5 28.5t-70.5 -28.5t-28.5 -70.5zM1151 -225q0 -42 28.5 -70.5t70.5 -28.5t70.5 28.5t28.5 70.5t-28.5 70.5t-70.5 28.5t-70.5 -28.5 t-28.5 -70.5zM1205 1016q0 -42 28.5 -70.5t70.5 -28.5t70.5 28.5t28.5 70.5t-28.5 70.5t-70.5 28.5t-70.5 -28.5t-28.5 -70.5zM1293 -12q0 -42 28.5 -70.5t70.5 -28.5t70.5 28.5t28.5 70.5t-28.5 70.5t-70.5 28.5t-70.5 -28.5t-28.5 -70.5zM1315 241q0 -42 28.5 -70.5 t70.5 -28.5t70.5 28.5t28.5 70.5t-28.5 70.5t-70.5 28.5t-70.5 -28.5t-28.5 -70.5zM1400 1155q0 -42 28.5 -70.5t70.5 -28.5t70.5 28.5t28.5 70.5t-28.5 70.5t-70.5 28.5t-70.5 -28.5t-28.5 -70.5z"/>
<glyph unicode="ا" horiz-adv-x="420" d="M136 1254.5q-1 70.5 18 129.5l90 293q4 -4 7 -46t5 -107.5t4 -147.5t3 -166t3 -161.5t4 -135.5v-182q0 -133 -13 -261t-62 -259l-21 -48q-14 -32 -27 -44q0 71 3.5 144t3.5 145q0 180 -8.5 358t-8.5 358q0 60 -1 130.5z"/>
<glyph unicode="ب" horiz-adv-x="2306" d="M151.5 309.5q16.5 114.5 55.5 265.5q4 13 12 16t8 -11q-8 -78 3.5 -133.5t39 -93.5t70.5 -61.5t98 -39.5q80 -23 190.5 -37t236.5 -20.5t261.5 -3t263.5 12.5t241.5 26.5t199.5 41.5q61 19 108.5 38.5t84 47t65.5 68.5t53 102q12 23 20.5 15t0.5 -35 q-37 -205 -142.5 -326t-285.5 -182q-115 -45 -275 -68.5t-329.5 -32t-333.5 -3t-287 17.5q-158 20 -239 69.5t-108.5 130.5t-11 195.5zM915 -541q0 4 11 15l87 94l87 94q6 8 14 0l82 -81l82 -81q8 -8 9 -10t-7 -12l-87 -94l-87 -95q-10 -10 -12 -11t-13 9l-79 78l-76 78 q-11 10 -11 16z"/>
<glyph unicode="ت" horiz-adv-x="2306" d="M151.5 309.5q16.5 114.5 55.5 265.5q4 13 12 16t8 -11q-8 -78 3.5 -133.5t39 -93.5t70.5 -61.5t98 -39.5q80 -23 190.5 -37t236.5 -20.5t261.5 -3t263.5 12.5t241.5 26.5t199.5 41.5q61 19 108.5 38.5t84 47t65.5 68.5t53 102q12 23 20.5 15t0.5 -35 q-37 -205 -142.5 -326t-285.5 -182q-115 -45 -275 -68.5t-329.5 -32t-333.5 -3t-287 17.5q-158 20 -239 69.5t-108.5 130.5t-11 195.5zM817 645q-12 12 0 25l101 103l102 106q8 8 8 4t8 -13q33 -45 71 -86t83 -75l86 89l86 87q10 10 12 11t15 -11l77 -79l78 -79q12 -8 2 -18 l-89 -95l-87 -94q-10 -10 -13 -11t-14 9l-39 40l-44 44l-42 38l-34 28l-86 -89l-88 -90q-13 -12 -21 -2q-41 33 -90 78t-82 80z"/>
<glyph unicode="ث" horiz-adv-x="2306" d="M151.5 309.5q16.5 114.5 55.5 265.5q4 13 12 16t8 -11q-8 -78 3.5 -133.5t39 -93.5t70.5 -61.5t98 -39.5q80 -23 190.5 -37t236.5 -20.5t261.5 -3t263.5 12.5t241.5 26.5t199.5 41.5q61 19 108.5 38.5t84 47t65.5 68.5t53 102q12 23 20.5 15t0.5 -35 q-37 -205 -142.5 -326t-285.5 -182q-115 -45 -275 -68.5t-329.5 -32t-333.5 -3t-287 17.5q-158 20 -239 69.5t-108.5 130.5t-11 195.5zM815 694q-12 11 0 23l101 104l102 105q8 8 8 6q0 -6 8 -14q62 -93 154 -160l86 87l86 89q10 10 12 10t14 -12l156 -156q8 -8 8 -12 q0 -2 -6 -8l-89 -94l-87 -93q-10 -10 -13 -11t-14 9q-36 37 -83 81l-76 69l-174 -180q-9 -9 -21 -2q-41 32 -90 78t-82 81zM1024 1016q-16 14 0 31l86 94l88 94q6 10 14 2l164 -164q8 -8 9 -10t-7 -10l-87 -95l-87 -94q-10 -10 -13 -11t-13 9z"/>
<glyph unicode="ج" horiz-adv-x="1587" d="M145 825q-2 2 1 9l9 18q5 10 11 20l11 19q5 8 7 12l64 82q28 35 55 60.5t56.5 41t64.5 25.5t78 13t100 3h29h45q26 0 54 -3t51.5 -8t39 -15t15.5 -25q0 -14 -5.5 -27.5t-13.5 -25.5t-18.5 -22.5t-20.5 -22.5q-67 -55 -130.5 -112.5t-121 -117t-106.5 -123t-84 -135 t-55.5 -151.5t-20.5 -172q0 -94 20.5 -171t57.5 -135.5t87 -100.5t109.5 -64.5t124 -28.5t131 6.5t132 41t125.5 75.5q40 31 79 73t76 90t70 101.5t60.5 105.5t49 102t35.5 91q13 17 19 17t7 -10.5t-1 -30t-7 -43t-11.5 -50t-13.5 -49.5l-13 -44q-6 -21 -11 -35 q-49 -156 -122.5 -285t-167.5 -234q-64 -71 -137.5 -120.5t-150.5 -77t-155 -31.5t-149.5 16.5t-134 65.5t-108.5 117.5t-73.5 172t-29.5 228.5q0 66 9 136.5t25.5 143t40 145.5t55 141.5t69.5 129t83 107.5q6 8 20.5 24.5t37.5 39.5l52 50q30 29 68 60q13 8 15 14t0 11.5 t-10.5 7.5t-18.5 4q-26 4 -53 6t-53 2q-27 0 -53.5 -1t-55.5 -3q-49 -4 -82 -19.5t-58.5 -36t-46 -45t-44.5 -49.5q-11 -6 -13 -4zM664 295q0 6 10 16l87 95l87 94q6 10 14 0l82 -81l82 -81q8 -8 9 -10t-7 -13l-87 -94l-87 -94q-10 -10 -12 -11t-13 9l-79 78l-76 78 q-10 10 -10 14z"/>
<glyph unicode="ح" horiz-adv-x="1587" d="M145 825q-2 2 1 9l9 18q5 10 11 20l11 19q5 8 7 12l64 82q28 35 55 60.5t56.5 41t64.5 25.5t78 13t100 3h29h45q26 0 54 -3t51.5 -8t39 -15t15.5 -25q0 -14 -5.5 -27.5t-13.5 -25.5t-18.5 -22.5t-20.5 -22.5q-67 -55 -130.5 -112.5t-121 -117t-106.5 -123t-84 -135 t-55.5 -151.5t-20.5 -172q0 -94 20.5 -171t57.5 -135.5t87 -100.5t109.5 -64.5t124 -28.5t131 6.5t132 41t125.5 75.5q40 31 79 73t76 90t70 101.5t60.5 105.5t49 102t35.5 91q13 17 19 17t7 -10.5t-1 -30t-7 -43t-11.5 -50t-13.5 -49.5l-13 -44q-6 -21 -11 -35 q-49 -156 -122.5 -285t-167.5 -234q-64 -71 -137.5 -120.5t-150.5 -77t-155 -31.5t-149.5 16.5t-134 65.5t-108.5 117.5t-73.5 172t-29.5 228.5q0 66 9 136.5t25.5 143t40 145.5t55 141.5t69.5 129t83 107.5q6 8 20.5 24.5t37.5 39.5l52 50q30 29 68 60q13 8 15 14t0 11.5 t-10.5 7.5t-18.5 4q-26 4 -53 6t-53 2q-27 0 -53.5 -1t-55.5 -3q-49 -4 -82 -19.5t-58.5 -36t-46 -45t-44.5 -49.5q-11 -6 -13 -4z"/>
<glyph unicode="خ" horiz-adv-x="1587" d="M145 825q-2 2 1 9l9 18q5 10 11 20l11 19q5 8 7 12l64 82q28 35 55 60.5t56.5 41t64.5 25.5t78 13t100 3h29h45q26 0 54 -3t51.5 -8t39 -15t15.5 -25q0 -14 -5.5 -27.5t-13.5 -25.5t-18.5 -22.5t-20.5 -22.5q-67 -55 -130.5 -112.5t-121 -117t-106.5 -123t-84 -135 t-55.5 -151.5t-20.5 -172q0 -94 20.5 -171t57.5 -135.5t87 -100.5t109.5 -64.5t124 -28.5t131 6.5t132 41t125.5 75.5q40 31 79 73t76 90t70 101.5t60.5 105.5t49 102t35.5 91q13 17 19 17t7 -10.5t-1 -30t-7 -43t-11.5 -50t-13.5 -49.5l-13 -44q-6 -21 -11 -35 q-49 -156 -122.5 -285t-167.5 -234q-64 -71 -137.5 -120.5t-150.5 -77t-155 -31.5t-149.5 16.5t-134 65.5t-108.5 117.5t-73.5 172t-29.5 228.5q0 66 9 136.5t25.5 143t40 145.5t55 141.5t69.5 129t83 107.5q6 8 20.5 24.5t37.5 39.5l52 50q30 29 68 60q13 8 15 14t0 11.5 t-10.5 7.5t-18.5 4q-26 4 -53 6t-53 2q-27 0 -53.5 -1t-55.5 -3q-49 -4 -82 -19.5t-58.5 -36t-46 -45t-44.5 -49.5q-11 -6 -13 -4zM395 1548q0 6 11 17l87 94l87 94q6 10 14 0l82 -81l82 -81q8 -8 9 -10t-7 -12l-87 -95l-87 -94q-11 -10 -13 -11t-12 9l-79 78l-76 78 q-11 10 -11 14z"/>
<glyph unicode="د" horiz-adv-x="672" d="M-68 -72q-2 4 15 15q12 12 39 31l66 42l82 54l89 58l87 60q42 29 75 56q6 65 -12.5 117.5t-53 93.5t-84 71.5t-106.5 55.5q-4 2 -4 6v8q2 6 9 20l14 32l14 30q6 14 8 20q2 4 6 14.5t8 25t10 30.5l10 30q5 15 8 25.5t5 14.5q2 8 5 16t16 8q41 -8 79.5 -25.5t72.5 -43 t61.5 -58.5t47 -70.5t31 -79.5t11.5 -87q-2 -45 -13.5 -87t-29 -84t-40.5 -82l-46 -79q-2 -2 -11.5 -16.5t-24.5 -35.5l-34 -46l-37 -52q-16 -4 -45 -12l-62 -18l-70 -18t-67.5 -18t-54 -14.5t-31.5 -7.5q-2 0 -13 -2t-19 -2q-9 0 -11 4z"/>
<glyph unicode="ذ" horiz-adv-x="672" d="M-68 -72q-2 4 15 15q12 12 39 31l66 42l82 54l89 58l87 60q42 29 75 56q6 65 -12.5 117.5t-53 93.5t-84 71.5t-106.5 55.5q-4 2 -4 6v8q2 6 9 20l14 32l14 30q6 14 8 20q2 4 6 14.5t8 25t10 30.5l10 30q5 15 8 25.5t5 14.5q2 8 5 16t16 8q41 -8 79.5 -25.5t72.5 -43 t61.5 -58.5t47 -70.5t31 -79.5t11.5 -87q-2 -45 -13.5 -87t-29 -84t-40.5 -82l-46 -79q-2 -2 -11.5 -16.5t-24.5 -35.5l-34 -46l-37 -52q-16 -4 -45 -12l-62 -18l-70 -18t-67.5 -18t-54 -14.5t-31.5 -7.5q-2 0 -13 -2t-19 -2q-9 0 -11 4zM190 1335q0 6 11 17l87 94l87 94 q6 10 14 0l82 -81l82 -81q8 -8 9 -10t-7 -12l-87 -94l-87 -95q-10 -10 -12 -11t-13 9l-78 78l-77 78q-11 10 -11 14z"/>
<glyph unicode="ر" horiz-adv-x="575" d="M-90 -104l146 124q73 64 135.5 134.5t111.5 151.5t74 177q12 56 21.5 113t23.5 113q12 28 22.5 24t10.5 -26q-2 -72 -10.5 -138.5t-20.5 -132.5q-18 -100 -48 -205.5t-81 -199.5q-12 -25 -44 -38l-54 -22l-77 -25l-89 -28q-43 -14 -76 -23.5t-35 -9.5q-22 -8 -10 11z"/>
<glyph unicode="ز" horiz-adv-x="575" d="M-90 -104l146 124q73 64 135.5 134.5t111.5 151.5t74 177q12 56 21.5 113t23.5 113q12 28 22.5 24t10.5 -26q-2 -72 -10.5 -138.5t-20.5 -132.5q-18 -100 -48 -205.5t-81 -199.5q-12 -25 -44 -38l-54 -22l-77 -25l-89 -28q-43 -14 -76 -23.5t-35 -9.5q-22 -8 -10 11z M242 1229q0 6 10 16l87 94l87 95q6 8 14 0l82 -81l82 -81q8 -8 9 -10t-7 -13l-87 -94l-87 -94q-10 -10 -12 -11t-12 9l-79 78l-77 77q-10 11 -10 15z"/>
<glyph unicode="س" horiz-adv-x="1980" d="M147 -4q0 160 32 314.5t87 303.5q4 9 10.5 12t9.5 -1t2 -18.5t-7 -39.5q-13 -43 -22 -85t-16 -84t-10.5 -84t-3.5 -85q0 -133 28 -233t76 -170t112.5 -110t138 -53t151.5 -2t155 46t146.5 91.5t127 131t96 166.5t53.5 199q4 37 5 81t0 92t-4 99t-8 99l-11 93 q-5 44 -11 81q0 2 -2 13t-5 24.5t-5 24.5t-2 13q-2 9 -3 22t0 29.5t3 33t7 29.5t12 21.5t18 8.5q4 0 9 -4t10 -9l10 -11q5 -5 10 -7q28 -8 54.5 -7t50.5 9t44.5 21.5t32.5 27.5l30 32q15 15 29.5 26.5t30.5 18.5t39 7q12 0 23 -3l21 -6l21 -6q11 -3 23 -3q16 0 27.5 6 t18.5 16.5t11 21.5l8 23q5 11 9 18t8 8t7 -4t3 -17q0 -15 -4 -35.5t-11 -44t-17.5 -47t-25 -42t-29.5 -29.5t-34 -11q-14 0 -28 6l-30 12q-16 6 -31 11t-32 3q-10 0 -18 -5t-16.5 -12t-14.5 -15.5t-14 -18.5q-14 -26 -26.5 -44.5t-26 -33t-33 -29t-47.5 -32.5 q2 -129 -3 -262t-24 -260q-18 -181 -64 -326t-112 -258t-145.5 -191.5t-166.5 -124.5t-177.5 -59.5t-172 4t-154.5 65.5t-125 126t-82 186.5t-26 245.5z"/>
<glyph unicode="ش" horiz-adv-x="1980" d="M147 -4q0 160 32 314.5t87 303.5q4 9 10.5 12t9.5 -1t2 -18.5t-7 -39.5q-13 -43 -22 -85t-16 -84t-10.5 -84t-3.5 -85q0 -133 28 -233t76 -170t112.5 -110t138 -53t151.5 -2t155 46t146.5 91.5t127 131t96 166.5t53.5 199q4 37 5 81t0 92t-4 99t-8 99l-11 93 q-5 44 -11 81q0 2 -2 13t-5 24.5t-5 24.5t-2 13q-2 9 -3 22t0 29.5t3 33t7 29.5t12 21.5t18 8.5q4 0 9 -4t10 -9l10 -11q5 -5 10 -7q28 -8 54.5 -7t50.5 9t44.5 21.5t32.5 27.5l30 32q15 15 29.5 26.5t30.5 18.5t39 7q12 0 23 -3l21 -6l21 -6q11 -3 23 -3q16 0 27.5 6 t18.5 16.5t11 21.5l8 23q5 11 9 18t8 8t7 -4t3 -17q0 -15 -4 -35.5t-11 -44t-17.5 -47t-25 -42t-29.5 -29.5t-34 -11q-14 0 -28 6l-30 12q-16 6 -31 11t-32 3q-10 0 -18 -5t-16.5 -12t-14.5 -15.5t-14 -18.5q-14 -26 -26.5 -44.5t-26 -33t-33 -29t-47.5 -32.5 q2 -129 -3 -262t-24 -260q-18 -181 -64 -326t-112 -258t-145.5 -191.5t-166.5 -124.5t-177.5 -59.5t-172 4t-154.5 65.5t-125 126t-82 186.5t-26 245.5zM727 1565q-12 10 0 22l101 105l102 104q8 10 8 6t8 -14q33 -47 70 -86t84 -74l86 87l86 89q10 11 12 11t14 -13 l156 -155q8 -9 8 -13q0 -2 -6 -8l-89 -93l-87 -93q-10 -10 -13 -11.5t-14 9.5l-39 40l-44 42l-42 38q-20 19 -34 29l-174 -180q-9 -8 -21 -2q-41 33 -90 79t-82 81zM936 1886q-16 15 0 31l86 94l88 94q4 6 6 7.5t8 -5.5l164 -163q8 -9 9 -11t-7 -10l-87 -94l-87 -94 q-10 -11 -13 -12t-13 10z"/>
<glyph unicode="ص" horiz-adv-x="2263" d="M141 -39q0 176 44 340t116 324q2 4 9 20.5t12 20.5q2 6 6 10t7 3t3 -11q0 -9 -6 -33q-37 -117 -62.5 -222.5t-25.5 -228.5q0 -98 25.5 -192t77.5 -166t131 -116t188 -44q190 0 331.5 98.5t239.5 255.5q76 121 97.5 247t21.5 259q0 84 -3 167t-14 169q-6 17 -4 41.5 t8.5 48t18.5 41t29 21.5q18 -35 58 -40t75 -1q57 78 122 151l130 142q41 45 98 80.5t121 35.5q65 0 97 -47t26 -106q-13 -119 -71 -225.5t-144 -178.5q-95 -77 -213.5 -113t-237.5 -46q-4 -39 -8 -83l-8 -88q-4 -44 -10.5 -86t-14.5 -75q-18 -96 -51 -206t-81 -217.5 t-113.5 -205.5t-147.5 -174t-183.5 -121t-222.5 -45q-116 0 -205.5 54.5t-147.5 140.5t-88 192.5t-30 208.5zM1561 973q61 -4 130.5 8t135 37.5t126 63.5t103.5 85q4 27 -7 46.5t-29.5 31.5t-41 18.5t-43.5 6.5q-55 0 -101 -31t-85 -65q-43 -41 -96.5 -97.5t-91.5 -103.5z "/>
<glyph unicode="ض" horiz-adv-x="2263" d="M141 -39q0 176 44 340t116 324q2 4 9 20.5t12 20.5q2 6 6 10t7 3t3 -11q0 -9 -6 -33q-37 -117 -62.5 -222.5t-25.5 -228.5q0 -98 25.5 -192t77.5 -166t131 -116t188 -44q190 0 331.5 98.5t239.5 255.5q76 121 97.5 247t21.5 259q0 84 -3 167t-14 169q-6 17 -4 41.5 t8.5 48t18.5 41t29 21.5q18 -35 58 -40t75 -1q57 78 122 151l130 142q41 45 98 80.5t121 35.5q65 0 97 -47t26 -106q-13 -119 -71 -225.5t-144 -178.5q-95 -77 -213.5 -113t-237.5 -46q-4 -39 -8 -83l-8 -88q-4 -44 -10.5 -86t-14.5 -75q-18 -96 -51 -206t-81 -217.5 t-113.5 -205.5t-147.5 -174t-183.5 -121t-222.5 -45q-116 0 -205.5 54.5t-147.5 140.5t-88 192.5t-30 208.5zM1401 1692q0 6 10 16l87 94l87 94q6 11 14 0l82 -80l82 -81q9 -9 10 -11t-8 -12l-87 -94l-87 -94q-10 -11 -12 -12t-12 10l-79 78l-77 77q-10 11 -10 15zM1561 973 q61 -4 130.5 8t135 37.5t126 63.5t103.5 85q4 27 -7 46.5t-29.5 31.5t-41 18.5t-43.5 6.5q-55 0 -101 -31t-85 -65q-43 -41 -96.5 -97.5t-91.5 -103.5z"/>
<glyph unicode="ط" horiz-adv-x="885" d="M-90 -124q-8 3 10 20q14 14 46 34l64 38l61 34q28 16 38 29q18 43 36.5 92t35 102.5t28 106.5t17.5 102q8 184 14 364l12 363q2 8 3 14.5t1 12.5q21 63 48.5 130.5t64.5 170.5q10 29 13.5 16.5t3.5 -37.5q-7 -198 -13 -393.5t-14 -394.5q0 -10 -2 -31.5t-5 -46 t-7.5 -48.5t-6.5 -38l50 58q26 30 53.5 53.5t61.5 39t75 15.5q72 0 108.5 -50t36.5 -118q0 -51 -29.5 -123t-72.5 -142.5t-93 -131t-91 -86.5q-13 -11 -39.5 -19t-38.5 -12l-223 -62l-222 -61q-16 -4 -24 -1zM178 51l23 10q2 0 31 17l65 38l74 46q37 22 59 37q64 41 119 82 t102 98q21 27 22 56.5t-13.5 54t-39 41t-57.5 16.5q-35 0 -69.5 -13.5t-65.5 -37t-55.5 -53t-38.5 -60.5q-45 -84 -83 -169z"/>
<glyph unicode="ظ" horiz-adv-x="889" d="M-90 -124q-8 3 10 20q14 14 46 34l64 38l61 34q28 16 38 29q18 43 36.5 92t35 102.5t28 106.5t17.5 102q8 184 14 364l12 363q2 8 3 14.5t1 12.5q21 63 48.5 130.5t64.5 170.5q10 29 13.5 16.5t3.5 -37.5q-7 -198 -13 -393.5t-14 -394.5q0 -10 -2 -31.5t-5 -46 t-7.5 -48.5t-6.5 -38l50 58q26 30 53.5 53.5t61.5 39t75 15.5q72 0 108.5 -50t36.5 -118q0 -51 -29.5 -123t-72.5 -142.5t-93 -131t-91 -86.5q-13 -11 -39.5 -19t-38.5 -12l-223 -62l-222 -61q-16 -4 -24 -1zM178 51l23 10q2 0 31 17l65 38l74 46q37 22 59 37q64 41 119 82 t102 98q21 27 22 56.5t-13.5 54t-39 41t-57.5 16.5q-35 0 -69.5 -13.5t-65.5 -37t-55.5 -53t-38.5 -60.5q-45 -84 -83 -169zM541 1110q0 6 10 16l87 95l87 94q6 10 14 0l82 -81l82 -81q8 -8 9 -10t-7 -13l-87 -94l-87 -94q-10 -10 -12 -11t-12 9l-79 78l-77 78 q-10 10 -10 14z"/>
<glyph unicode="ع" horiz-adv-x="1559" d="M145 -45q0 186 56.5 364.5t167.5 329.5q0 2 3 6t-7 9l-39 30q-21 15 -38.5 33t-28.5 41t-11 49q0 19 10 35q4 4 14 16l20 25q11 14 19 25.5t13 15.5q36 51 69 107.5t70 105.5t82 81t106 32q21 0 44.5 -6.5t44 -18.5t34.5 -30.5t17 -41.5q2 -26 -20.5 -40.5t-45.5 -14.5 q-25 0 -42 5l-33 10l-30 11q-16 5 -34 5q-23 0 -58.5 -14.5t-72.5 -57.5q-19 -20 -16 -37.5t18 -32.5q32 -41 77.5 -73.5t94.5 -32.5q16 0 30.5 2t28.5 10l36 23l48 28l40 25q17 10 19 12q7 4 23 17l34 26l36 24l24 15q19 10 23 4t1 -13t-16.5 -22.5t-21.5 -25.5 q-6 -4 -14.5 -13.5t-17.5 -18.5l-16 -16q-7 -7 -9 -7l-39 -35l-31 -25l-29 -23l-35 -28l-71 -54l-62 -46l-65 -52q-35 -28 -82 -71q-105 -88 -159 -200t-52 -253q0 -104 25.5 -198.5t79 -164t135 -110.5t196.5 -37q141 4 254 57.5t200 141.5t149.5 200.5t103.5 237.5 q6 18 12 13t8 -25q0 -10 -2 -25.5t-5 -31.5l-6 -34q-3 -16 -7 -26q-29 -94 -67 -190.5t-89 -185.5t-114.5 -168t-143.5 -137t-174 -91t-205 -33q-76 0 -136 22.5t-122 65.5q-59 41 -98 99.5t-61.5 124t-31 136t-8.5 140.5z"/>
<glyph unicode="غ" horiz-adv-x="1559" d="M113 1540q0 6 10 16l87 95l87 94q6 10 14 0l82 -81l82 -81q8 -8 9 -10t-7 -12l-87 -95l-87 -94q-10 -10 -12 -11t-12 9l-79 78l-77 78q-10 10 -10 14zM145 -45q0 186 56.5 364.5t167.5 329.5q0 2 3 6t-7 9l-39 30q-21 15 -38.5 33t-28.5 41t-11 49q0 19 10 35q4 4 14 16 l20 25q11 14 19 25.5t13 15.5q36 51 69 107.5t70 105.5t82 81t106 32q21 0 44.5 -6.5t44 -18.5t34.5 -30.5t17 -41.5q2 -26 -20.5 -40.5t-45.5 -14.5q-25 0 -42 5l-33 10l-30 11q-16 5 -34 5q-23 0 -58.5 -14.5t-72.5 -57.5q-19 -20 -16 -37.5t18 -32.5q32 -41 77.5 -73.5 t94.5 -32.5q16 0 30.5 2t28.5 10l36 23l48 28l40 25q17 10 19 12q7 4 23 17l34 26l36 24l24 15q19 10 23 4t1 -13t-16.5 -22.5t-21.5 -25.5q-6 -4 -14.5 -13.5t-17.5 -18.5l-16 -16q-7 -7 -9 -7l-39 -35l-31 -25l-29 -23l-35 -28l-71 -54l-62 -46l-65 -52q-35 -28 -82 -71 q-105 -88 -159 -200t-52 -253q0 -104 25.5 -198.5t79 -164t135 -110.5t196.5 -37q141 4 254 57.5t200 141.5t149.5 200.5t103.5 237.5q6 18 12 13t8 -25q0 -10 -2 -25.5t-5 -31.5l-6 -34q-3 -16 -7 -26q-29 -94 -67 -190.5t-89 -185.5t-114.5 -168t-143.5 -137t-174 -91 t-205 -33q-76 0 -136 22.5t-122 65.5q-59 41 -98 99.5t-61.5 124t-31 136t-8.5 140.5z"/>
<glyph unicode="ف" horiz-adv-x="2263" d="M150 123q-13 110 3.5 203.5t36.5 195.5q5 29 15 30t10 -20v-22v-35v-37v-22q2 -66 47 -107t107.5 -65.5t130.5 -37.5l114 -22q64 -12 171.5 -15t234.5 3t265 19.5t264 35t229.5 49t163.5 62.5q12 8 32.5 19.5t39 25.5t31.5 30.5t13 35.5q0 8 -8 18t-20.5 19.5t-24.5 15.5 t-20 6h-3q-38 -51 -104 -51q-57 0 -102 43t-45 100v10v11q4 10 12 35l16 54q8 27 16.5 52.5t12.5 36.5q6 22 11 52t16.5 55.5t30 44t52.5 18.5q58 0 99 -47.5t68.5 -112t41 -132t13.5 -108.5q0 -61 -12.5 -119.5t-32.5 -115.5q-62 -152 -188 -237t-279 -122 q-172 -43 -342 -66.5t-326 -30.5t-291 0t-239 26q-39 8 -84 24.5t-84 43t-65.5 64.5t-26.5 87zM881 864q0 6 10 17l87 94l87 94q6 8 14 0l82 -81l82 -81q8 -8 9 -10t-7 -12l-87 -95l-87 -94q-10 -10 -12 -11t-12 9l-79 78l-77 78q-10 10 -10 14z"/>
<glyph unicode="ق" horiz-adv-x="1556" d="M143 -37q4 141 31 269t72 255q0 2 8 20.5l18 42.5l19 51q10 26 16 40q17 43 27 39t-2 -39q-35 -117 -63.5 -223.5t-28.5 -229.5q0 -102 26.5 -196t81.5 -166t138 -115t198 -43q96 0 180 32t155 85t129 124t105 148q41 72 64.5 137.5t23.5 149.5q0 47 -7 92t-44 82 q-12 10 -22 10q-23 0 -42.5 -13t-47.5 -13q-72 0 -121 49t-49 119v22l44 128l44 128q12 35 37.5 60.5t64.5 25.5q66 0 104.5 -44t61 -105.5t33 -128t13.5 -89t3 -42.5q0 -21 -1 -49l-2 -57q-1 -30 -1 -48q-2 -98 -24.5 -218t-65.5 -243t-106.5 -239.5t-148.5 -206.5 t-190.5 -144.5t-230.5 -54.5q-127 0 -220 50t-155.5 133t-93.5 190.5t-31 224.5zM358 1356q-12 12 0 24l101 104l102 105q8 8 8 4q0 -2 9 -12q65 -94 153 -162l86 89l86 87q10 11 12.5 12t14.5 -12l78 -79l77 -78q13 -8 2 -19l-89 -94l-87 -94q-10 -10 -13 -11t-13 9l-41 39 l-44 44l-42 38q-19 18 -33 28l-86 -89l-88 -89q-8 -10 -21 -2q-41 33 -90 78t-82 80z"/>
<glyph unicode="ل" horiz-adv-x="1614" d="M143 -33q2 109 22.5 211.5t45.5 196.5q35 110 59.5 172.5t40 88.5t19.5 17.5t-2 -39.5l-30 -103q-15 -50 -26.5 -99.5t-18.5 -99.5t-7 -103q0 -100 23.5 -196.5t72.5 -173.5t129 -125t193 -52q112 -2 216.5 41t192.5 117t154.5 171t103.5 204q17 45 23 92t7 95t0 97 t1 101q0 245 -10.5 490t-10.5 493q0 12 1 41.5t6 54.5l22 67l20 61l21 59q10 30 25 67q4 18 10 32.5t11 17.5t8 -9t1 -43q4 -78 1 -172t-3 -183v-768q-2 -16 -4 -59t-5 -91t-6 -91t-5 -60q-8 -90 -26.5 -182t-45.5 -176q-22 -86 -58 -176t-86 -174t-113.5 -160t-139.5 -132 t-164 -89t-186 -33q-125 0 -215.5 53.5t-149.5 137.5t-88 192.5t-29 218.5z"/>
<glyph unicode="م" horiz-adv-x="1237" d="M143 -608q0 174 5.5 349t52.5 343q30 109 78.5 205t116 173t156.5 129t204 75q-13 12 -29 16t-8 27q22 47 48 91t48 87l21 41q12 22 28 22q35 0 76 -18.5t76 -49t58.5 -67.5t23.5 -74q0 -34 -10.5 -65t-26.5 -60q-47 -86 -131 -137t-180 -67q-7 0 -26 -3t-42 -7.5 t-42 -7.5t-24 -3q-55 -10 -112.5 -35.5t-107.5 -64.5t-85 -90t-43 -113q-10 -51 -14 -99t-6 -100q0 -2 -1 -54t-3 -125l-4 -150q-2 -78 -2 -127q-5 -242 -9 -481l-8 -482q-2 -22 -4 -48t-6 -48l-4 4q-12 29 -17.5 53.5t-9.5 55.5l-24 452q-13 225 -13 453z"/>
<glyph unicode="ن" horiz-adv-x="1561" d="M143 0q0 156 40 306.5t104 293.5q16 35 25.5 43t12.5 0t0 -28.5t-12 -45.5q-12 -32 -25.5 -77.5t-23.5 -96.5t-17 -104t-7 -103q0 -98 26.5 -191t78.5 -167t133 -118t190 -44q86 0 161.5 21.5t142 60.5t124 95.5t106.5 125.5q41 56 75 121.5t38 134.5q0 9 1 27t1 39v37 v28q0 131 -10.5 261.5t-6.5 263.5l36 152l36 155q2 12 7 14t7 -10q3 -16 5 -57t4 -87t5 -88t3 -59v-26q0 -7 1 -29.5t3 -51t4 -62.5t3 -63.5t2 -52t1 -28.5v-2q0 -70 -3 -140.5t-17 -138.5q-23 -114 -54.5 -218.5t-78.5 -211.5q-39 -92 -102.5 -182t-145.5 -164t-179.5 -120 t-205.5 -46q-68 0 -134.5 21.5t-124 60.5t-102.5 92t-71 117q-33 82 -44.5 169t-11.5 173zM633 434q0 6 10 17l87 94l87 94q6 10 14 0l82 -81l82 -81q9 -8 10 -10t-8 -12l-87 -95l-87 -94q-10 -10 -12 -11t-12 9l-79 78l-77 78q-10 10 -10 14z"/>
<glyph unicode="و" horiz-adv-x="606" d="M-97 -113q-1 4 5 11.5t15 14.5t16 11q47 37 101 75l110 78l109 83t101 90q17 31 0.5 48t-43.5 21l-41 -18q-18 -8 -43 -8q-30 0 -61 13t-53.5 34.5t-36.5 50.5t-14 60v24q0 8 4 23q22 65 46 128l46 128q10 28 37.5 49.5t60.5 21.5q55 0 93 -41t62.5 -99t35 -120.5 t10.5 -103.5q0 -33 -3 -64.5t-14 -62.5q-16 -47 -32.5 -85t-35 -75t-40.5 -75l-45 -83q-10 -22 -27 -26l-172 -52l-176 -55q-14 0 -15 4z"/>
<glyph unicode="ً" d="M-205 -53q10 22 23.5 46.5t27.5 47.5q50 39 106 67.5t128 73.5q29 17 51.5 29t44.5 27q-18 -29 -39.5 -54.5t-44.5 -56.5l-99 -61l-108 -62q-4 -4 -16 -11t-26.5 -16.5t-28 -17.5t-19.5 -12zM-154 -184l26 46l26 48q49 39 106 67.5t129 71.5q29 19 50.5 31t43.5 26 q-18 -28 -39 -54l-45 -56q-43 -29 -98 -62l-108 -63q-5 -2 -17 -9t-25.5 -16.5t-27.5 -17.5z"/>
<glyph unicode="ٌ" d="M-168 133q2 53 35 101.5t67 82.5q11 13 31.5 31.5t24.5 20.5q4 4 10 4t0 -15q0 -2 -11.5 -19t-17.5 -28q-8 -10 -21 -23.5t-25.5 -29.5t-21.5 -36.5t-9 -45.5q0 -10 8 -25.5t18 -15.5q6 2 8 7t6 12q5 12 13 17t14 -1q8 -4 8 -29q0 -22 -10 -41q-10 -16 -28.5 -29.5 t-45.5 -11.5q-26 0 -39.5 26t-13.5 48zM-94 -12q12 18 26 28l33 25q29 22 51.5 42.5t49.5 49.5q-23 4 -40.5 22.5t-17.5 47.5q2 20 12.5 45.5t24.5 47t32.5 37t39.5 15.5q35 0 44 -25.5t9 -54.5q0 -45 -19.5 -84t-50 -71.5t-67.5 -60t-72 -50.5q-10 -4 -27.5 -14.5 t-19.5 -10.5q-2 -2 -8 -2t0 13zM49 248q0 -21 19.5 -35t35.5 -14q27 0 27 30q0 17 -14.5 30t-32.5 13q-10 0 -22.5 -7t-12.5 -17z"/>
<glyph unicode="ٍ" d="M-205 -53q10 22 23.5 46.5t27.5 47.5q50 39 106 67.5t128 73.5q29 17 51.5 29t44.5 27q-18 -29 -39.5 -54.5t-44.5 -56.5l-99 -61l-108 -62q-4 -4 -16 -11t-26.5 -16.5t-28 -17.5t-19.5 -12zM-154 -184l26 46l26 48q49 39 106 67.5t129 71.5q29 19 50.5 31t43.5 26 q-18 -28 -39 -54l-45 -56q-43 -29 -98 -62l-108 -63q-5 -2 -17 -9t-25.5 -16.5t-27.5 -17.5z"/>
<glyph unicode="َ" d="M-180 -137q10 22 23.5 46.5t27.5 47.5q49 39 105.5 68.5t127.5 70.5q29 19 51.5 31t45.5 27q-19 -29 -41 -56l-43 -55l-99 -61l-108 -64q-4 -2 -16.5 -9t-26.5 -16.5t-27.5 -17.5t-19.5 -12z"/>
<glyph unicode="ُ" d="M-215 -182q16 22 32.5 35.5t39.5 29.5q37 29 63.5 53.5t59.5 59.5q-29 4 -50.5 26.5t-19.5 57.5q2 24 13 55t28.5 57.5t41 45t48.5 18.5q39 0 52 -30.5t13 -65.5q0 -56 -24.5 -103t-61 -87t-81.5 -73.5t-89 -60.5l-32 -18q-21 -13 -23 -13q-4 -2 -10 -2q-8 0 0 15z M-41 133q0 -22 22.5 -39.5t43.5 -17.5q32 0 32 37q0 22 -17 36.5t-40 14.5q-10 0 -25.5 -8.5t-15.5 -22.5z"/>
<glyph unicode="ِ" d="M-180 -137q10 22 23.5 46.5t27.5 47.5q49 39 105.5 68.5t127.5 70.5q29 19 51.5 31t45.5 27q-19 -29 -41 -56l-43 -55l-99 -61l-108 -64q-4 -2 -16.5 -9t-26.5 -16.5t-27.5 -17.5t-19.5 -12z"/>
<glyph unicode="ّ" d="M-156 33q0 22 2 63t13 70q14 45 28 65q7 15 11 15q0 -29 -4.5 -56.5t-4.5 -54.5q0 -29 9.5 -56.5t44.5 -27.5q32 2 37.5 23.5t9.5 54.5q4 25 9 49.5t13 40.5q4 19 11.5 29t17.5 18q0 -24 -4 -50t-4 -50q0 -16 1 -33.5t7 -33t18.5 -27t34.5 -15.5q21 0 29 13v59 q0 27 12 64q8 28 18.5 54.5t16.5 33.5q2 -29 2 -70q0 -39 -4 -86q-2 -19 -9 -48.5t-19.5 -59t-31 -50t-45.5 -20.5q-24 0 -39.5 16.5t-25.5 38.5q-16 -25 -34.5 -45t-49.5 -20q-35 0 -52.5 27.5t-17.5 68.5z"/>
<glyph unicode="ْ" d="M-166 -112.5q4 8.5 21 16.5l21 11l38 19l36 20l21 11q9 4 31 19l27 18q6 4 13 12.5t7 18.5q0 20 -25.5 24t-39.5 4q-21 0 -38 -3l-38 -7q10 39 22 60q19 34 36.5 43.5t58.5 9.5q12 0 28.5 -1t30.5 -6t24.5 -14.5t10.5 -27.5q0 -23 -14.5 -49.5t-24.5 -42.5 q-23 -31 -33 -47.5t-18.5 -25.5t-20.5 -15.5t-37 -14.5l-31 -10l-40 -12q-19 -7 -34.5 -11t-17.5 -4q-18 -4 -14 4.5z"/>
<glyph unicode="ٓ" d="M-508 -166q0 58 33 137t85 150.5t116.5 121.5t126.5 50q31 0 56.5 -11t51.5 -24q76 -30 157 -21t153.5 46t131 94.5t93.5 124.5q12 12 14 0q0 -43 -14 -84t-33 -82q-35 -76 -86 -148.5t-115.5 -130t-142.5 -92t-168 -34.5q-63 0 -115.5 24.5t-105.5 55.5 q-39 12 -71.5 -3.5t-59.5 -43t-49 -60.5l-39 -55q-8 -15 -19 -15z"/>
<glyph unicode="ٔ" d="M-203 -119q6 25 15.5 50.5t21.5 54.5q14 -11 35.5 -23t44.5 -12q37 0 56.5 33.5t40 75.5t49 77t87.5 35q9 0 24 -4t28 -14q-13 -31 -29 -65t-33 -60q-18 0 -43.5 -5.5t-50.5 -23.5q-18 -18 -32.5 -46t-33 -52.5t-44 -43t-62.5 -18.5q-25 0 -43 14.5t-31 26.5z"/>
<glyph unicode="ٖ" d="M-41 -39q4 59 8 125t8 125q11 33 21 69l20 68q2 4 4.5 10.5t8.5 6.5v-33q0 -13 -1 -41.5t-3 -61t-3.5 -61.5t-3.5 -41t-8 -34.5t-14 -47.5t-16.5 -46.5t-10.5 -29.5q-4 -8 -10 -8z"/>
<glyph unicode="ٗ" d="M-72 96q2 54 19.5 100t42.5 93q18 39 29.5 51t14.5 8t0 -22.5t-14 -40.5q-10 -29 -21 -56.5t-15 -60.5q0 -18 6 -44t35 -26l20 18q8 7 14 13q4 2 10.5 -1t6.5 -7q0 -19 -5 -40.5t-14.5 -39.5t-26 -30.5t-36.5 -12.5q-39 0 -52.5 32.5t-13.5 65.5z"/>
<glyph unicode="٘" d="M-20 92q0 10 4 32.5t13 46.5t23.5 43t34.5 22q-8 -15 -12 -27t-2 -29q0 -10 3 -25.5t12.5 -28.5t23.5 -21.5t35 -4.5q26 9 35.5 22t25.5 15q-2 -18 -14 -42.5t-29.5 -46t-39 -35t-44.5 -13.5q-35 0 -52 30.5t-17 61.5z"/>
<glyph unicode="٪" horiz-adv-x="1192" d="M145 756q-2 4 13.5 29.5t37 55t42 53.5t28.5 24q4 0 31 -18l57 -38q31 -22 55.5 -41.5t24.5 -25.5q0 -11 -15.5 -37.5t-36 -54t-42 -50t-31.5 -24.5l-85 59q-44 31 -79 68zM150 -231l684 1235l215 129l-129 -231l-110 -202l-102 -187l-103 -187l-111 -202l-127 -230 q-68 -41 -115 -67zM750 74q-2 4 13 29.5t36.5 55t42 53.5t28.5 24q4 0 31 -18l57 -38q31 -22 55.5 -41.5t24.5 -25.5q0 -11 -15 -37.5t-35.5 -54t-42 -50t-32.5 -24.5l-85 59q-44 31 -78 68z"/>
<glyph unicode="٫" horiz-adv-x="1026" d="M166 -420q-8 86 37 162t94 143l-55 33q-37 21 -64 66q-35 57 0 114l30 52l49 76l51 75l32 47q31 43 82 88t115 45q38 0 83.5 -25.5t45.5 -72.5q0 -35 -31 -57.5t-64 -22.5q-24 0 -48.5 18.5t-65.5 18.5q-39 0 -77 -20.5t-44 -69.5q-4 -19 14.5 -42.5t46 -45t62.5 -32.5 t65 -11q76 12 138 58l120 89q101 62 15 -51q-52 -70 -115 -124l-128 -104l-132 -107q-68 -56 -127 -132l-33 -44q-22 -28 -45 -83q-8 -27 -25.5 -42t-25.5 1z"/>
<glyph unicode="٬" horiz-adv-x="514" d="M107 25q-2 113 41 171t97.5 66.5t102.5 -31.5t56 -122q8 -70 -17.5 -156t-76.5 -178q-12 -33 -40 -65.5t-51.5 -50t-31.5 -8.5t17 61q12 24 37.5 70t43 98.5t17.5 103.5q0 49 -37 80q-16 14 -26.5 4t-22.5 -43q-6 -16 -20.5 -25.5t-32 -10.5t-33 8.5t-23.5 27.5z"/>
<glyph unicode="ٰ" d="M-24 2355q4 59 8 125t8 125q11 33 21 69l20 68q2 4 4.5 10.5t8.5 6.5v-33q0 -13 -1 -41.5t-3 -61t-3.5 -61.5t-3.5 -41t-8 -34.5t-14 -47.5t-16.5 -46.5t-10.5 -29.5q-4 -8 -10 -8z"/>
<glyph unicode="ٹ" horiz-adv-x="2306" d="M144 236.5q1 68.5 18.5 152.5t44.5 186q2 7 5 11t6 5t6 -2t3 -9q-8 -78 3.5 -133.5t39 -93.5t70.5 -61.5t98 -39.5q60 -16 137.5 -28.5t168 -20.5t187.5 -11.5t196.5 -1t198.5 8.5t189.5 16t171 24.5t144.5 32.5l76 25q35 12 64.5 27.5t53 34t44 42t39 55t34.5 72.5 q6 13 11.5 16t8.5 -1t4 -12.5t-3 -22.5q-19 -100 -55.5 -181t-90 -142.5t-124 -107.5t-158.5 -77q-58 -23 -128.5 -39t-147.5 -28.5t-161 -20.5t-167.5 -12t-168.5 -5t-164 1t-153 7t-135 11q-104 14 -174 41t-113 66.5t-61.5 93t-17.5 122zM938 551q-12 4 12 18 q41 23 66.5 39.5t52.5 38.5q21 39 35 91.5t14 88.5q0 13 1 43.5t5 61.5t5 58.5t1 41.5q19 41 36.5 86t31.5 72q8 31 14 31q0 -74 -1 -116t-2 -75t-2 -56.5t-3 -64.5q21 27 39.5 36t56.5 13q39 -6 58.5 -33.5t17.5 -45.5q-16 -52 -37 -91q-16 -26 -34.5 -60t-46.5 -62 l-48 -48q-20 -22 -34 -26q-9 0 -34.5 -6t-64.5 -13.5t-64.5 -13.5t-33.5 -6q-29 -6 -41 -2zM1118 666q25 12 59.5 32.5t66.5 42t51.5 44t25.5 44.5q-6 27 -18.5 32t-30.5 5q-45 -4 -65.5 -23.5t-39 -46t-31 -60.5t-18.5 -70z"/>
<glyph unicode="پ" horiz-adv-x="2306" d="M151.5 309.5q16.5 114.5 55.5 265.5q4 13 12 16t8 -11q-8 -78 3.5 -133.5t39 -93.5t70.5 -61.5t98 -39.5q80 -23 190.5 -37t236.5 -20.5t261.5 -3t263.5 12.5t241.5 26.5t199.5 41.5q61 19 108.5 38.5t84 47t65.5 68.5t53 102q12 23 20.5 15t0.5 -35 q-37 -205 -142.5 -326t-285.5 -182q-115 -45 -275 -68.5t-329.5 -32t-333.5 -3t-287 17.5q-158 20 -239 69.5t-108.5 130.5t-11 195.5zM767 -549q1 4 7 12l100 104l103 103q8 8 8 6q0 -6 8 -14q62 -92 154 -160l86 88l86 88q10 11 12 12t15 -12l77 -78l78 -79q12 -8 2 -19 l-89 -94l-87 -94q-10 -10 -13 -11t-14 9q-36 37 -84 81l-75 68l-86 -89l-88 -91q-9 -8 -21 -2q-41 33 -90 79t-82 81q-8 8 -7 12zM952 -842q0 4 11 15l86 94l86 94q6 8 8 8t8 -6l164 -164q8 -8 9 -10t-7 -10l-88 -95l-88 -94q-11 -10 -13 -11t-12 9l-153 154q-11 10 -11 16z "/>
<glyph unicode="چ" horiz-adv-x="1587" d="M145 825q-2 2 1 9l9 18q5 10 11 20l11 19q5 8 7 12l64 82q28 35 55 60.5t56.5 41t64.5 25.5t78 13t100 3h29h45q26 0 54 -3t51.5 -8t39 -15t15.5 -25q0 -14 -5.5 -27.5t-13.5 -25.5t-18.5 -22.5t-20.5 -22.5q-67 -55 -130.5 -112.5t-121 -117t-106.5 -123t-84 -135 t-55.5 -151.5t-20.5 -172q0 -94 20.5 -171t57.5 -135.5t87 -100.5t109.5 -64.5t124 -28.5t131 6.5t132 41t125.5 75.5q40 31 79 73t76 90t70 101.5t60.5 105.5t49 102t35.5 91q13 17 19 17t7 -10.5t-1 -30t-7 -43t-11.5 -50t-13.5 -49.5l-13 -44q-6 -21 -11 -35 q-49 -156 -122.5 -285t-167.5 -234q-64 -71 -137.5 -120.5t-150.5 -77t-155 -31.5t-149.5 16.5t-134 65.5t-108.5 117.5t-73.5 172t-29.5 228.5q0 66 9 136.5t25.5 143t40 145.5t55 141.5t69.5 129t83 107.5q6 8 20.5 24.5t37.5 39.5l52 50q30 29 68 60q13 8 15 14t0 11.5 t-10.5 7.5t-18.5 4q-26 4 -53 6t-53 2q-27 0 -53.5 -1t-55.5 -3q-49 -4 -82 -19.5t-58.5 -36t-46 -45t-44.5 -49.5q-11 -6 -13 -4zM484 379q1 4 8 12l100 103q49 53 102 104q8 10 8 6t9 -14q32 -47 69 -86t84 -74l86 88l86 88q11 10 13 11t14 -11l78 -79l78 -78q12 -9 2 -19 l-89 -94l-88 -94q-10 -11 -13 -12t-13 10l-40 40l-44 42l-42 38q-20 19 -34 29l-86 -89l-88 -91q-8 -8 -20 -2q-41 33 -90.5 79t-81.5 81q-9 8 -8 12zM670 84q0 6 10 16l86 94l86 95q6 8 8 8t8 -6l164 -164q8 -8 9 -10t-7 -11l-88 -94l-88 -94q-10 -10 -12 -11t-12 9 l-154 154q-10 10 -10 14z"/>
<glyph unicode="ڈ" horiz-adv-x="672" d="M-68 -72q-2 4 15 15q12 12 39 31l66 42l82 54l89 58l87 60q42 29 75 56q6 65 -12.5 117.5t-53 93.5t-84 71.5t-106.5 55.5q-4 2 -4 6v8q2 6 9 20l14 32l14 30q6 14 8 20q2 4 6 14.5t8 25t10 30.5l10 30q5 15 8 25.5t5 14.5q2 8 5 16t16 8q41 -8 79.5 -25.5t72.5 -43 t61.5 -58.5t47 -70.5t31 -79.5t11.5 -87q-2 -45 -13.5 -87t-29 -84t-40.5 -82l-46 -79q-2 -2 -11.5 -16.5t-24.5 -35.5l-34 -46l-37 -52q-16 -4 -45 -12l-62 -18l-70 -18t-67.5 -18t-54 -14.5t-31.5 -7.5q-2 0 -13 -2t-19 -2q-9 0 -11 4zM78 1104q-12 4 12 18 q41 23 66.5 39.5t52.5 38.5q20 39 34.5 91t14.5 89q0 13 1 43.5t5 61.5t5 58.5t1 41.5q19 41 36.5 86t31.5 72q8 31 14 31q0 -74 -1 -116t-2 -75t-2 -56.5t-3 -64.5q21 27 39 36t57 13q39 -6 58.5 -33.5t17.5 -45.5q-16 -52 -37 -91q-16 -26 -34.5 -60t-46.5 -61l-48 -50 q-20 -21 -35 -25q-8 0 -33.5 -6t-64.5 -13.5t-64.5 -13.5t-33.5 -6q-29 -6 -41 -2zM258 1219q25 12 59.5 32.5t66.5 42t51.5 44t25.5 44.5q-6 27 -18.5 32t-30.5 5q-45 -4 -65.5 -23.5t-39 -46t-31 -60.5t-18.5 -70z"/>
<glyph unicode="ڑ" horiz-adv-x="575" d="M-90 -104l146 124q73 64 135.5 134.5t111.5 151.5t74 177q12 56 21.5 113t23.5 113q12 28 22.5 24t10.5 -26q-2 -72 -10.5 -138.5t-20.5 -132.5q-18 -100 -48 -205.5t-81 -199.5q-12 -25 -44 -38l-54 -22l-77 -25l-89 -28q-43 -14 -76 -23.5t-35 -9.5q-24 -8 -10 11z M139.5 1022q-12.5 4 12.5 18q41 23 66.5 39.5t51.5 38.5q21 39 35 91.5t14 88.5q0 15 2.5 43.5t4.5 60.5t4 60.5t2 40.5q18 41 35.5 86t31.5 72q9 31 15 31q0 -72 -1 -116t-2 -75t-2 -57.5t-3 -63.5q20 27 38.5 36t57.5 14q39 -7 58.5 -34.5t17.5 -45.5q-15 -47 -37 -90 q-13 -29 -35.5 -62t-47 -61.5t-47 -49t-34.5 -24.5q-4 0 -34 -6l-65 -13l-64 -14q-30 -6 -34 -6q-28 -6 -40.5 -2zM319 1137q27 14 61 33.5t64.5 41t53 44t24.5 44.5q-6 27 -18 32t-31 5q-45 -4 -65.5 -23.5t-38.5 -45.5q-19 -27 -31 -60.5t-19 -70.5z"/>
<glyph unicode="ژ" horiz-adv-x="692" d="M-90 -104l146 124q73 64 135.5 134.5t111.5 151.5t74 177q12 56 21.5 113t23.5 113q12 28 22.5 24t10.5 -26q-2 -72 -10.5 -138.5t-20.5 -132.5q-18 -100 -48 -205.5t-81 -199.5q-12 -25 -44 -38l-54 -22l-77 -25l-89 -28q-43 -14 -76 -23.5t-35 -9.5q-22 -8 -10 11z M2 1210q-12 11 0 23l100 105l103 104q8 8 8 6q0 -6 8 -14q62 -93 154 -160l86 87l86 89q10 10 12 10t14 -12l156 -156q8 -8 8 -12q0 -2 -6 -8l-89 -93l-87 -94q-10 -10 -13 -11t-14 9q-36 37 -84 81l-75 69l-174 -180q-9 -9 -21 -2q-41 32 -90 79zM211 1532q-16 14 0 31 l86 94l88 94q4 6 6 7t8 -5l164 -164q8 -8 9 -10t-7 -10l-87 -95l-87 -94q-10 -10 -13 -11t-13 9z"/>
<glyph unicode="ک" horiz-adv-x="1661" d="M143 186q0 88 19.5 181.5t48.5 177.5q6 14 18 14q13 0 7 -24q-5 -21 -7 -41.5t-2 -42.5q0 -70 32 -116t82 -77t110.5 -46t117.5 -19q191 -17 364 15t343 107q39 17 63.5 37.5t39 47t20.5 58t6 72.5v1147q0 52 14.5 123.5t38 144t57 137t72.5 103.5l133 116l101 83l95 72 l114 84l155 114l223 164q5 4 13 11l18 15l19 16q8 7 12 9q14 10 17 6t-7 -20q-35 -57 -79 -120.5t-85 -111.5q-37 -40 -86 -83t-124 -100l-186 -141l-265 -202l-47 -39q-25 -20 -45.5 -42.5t-36 -50.5t-19.5 -58v-146q0 -166 2 -327.5t2 -327.5v-213q0 -14 -2 -55l-4 -85 q-2 -44 -5 -85t-3 -56q-20 -133 -51 -241.5t-87 -192.5t-144.5 -144.5t-225.5 -96.5q-98 -27 -201.5 -39.5t-207.5 -12.5q-76 0 -154 12.5t-140.5 46t-102.5 92t-40 150.5z"/>
<glyph unicode="گ" horiz-adv-x="1661" d="M143 186q0 88 19.5 180.5t48.5 178.5q6 14 18 14q13 0 7 -24q-9 -35 -9 -84q0 -68 32 -116t82 -78t110.5 -45t117.5 -19q193 -17 364 15t343 107q78 33 103.5 84.5t25.5 130.5v1147q0 52 13.5 123.5t38 144t58 137t72.5 103.5l133 116l100 84q46 38 95 73l113 84l156 112 l224 164q2 2 11.5 10t18.5 16.5t18.5 15.5t13.5 9q14 10 17 6t-7 -20q-35 -57 -79 -120.5t-85 -111.5q-37 -40 -86 -82t-124 -101l-186 -141l-265 -202q-47 -37 -92 -82t-56 -108v-146q0 -219 6.5 -434t6.5 -434q0 -16 -2 -56t-5.5 -84t-5.5 -85t-2 -56q-20 -133 -52 -241.5 t-89 -192.5t-147.5 -144.5t-227.5 -96.5q-98 -27 -201.5 -39.5t-207.5 -12.5q-76 0 -154 12.5t-140.5 46t-102.5 92t-40 150.5zM1439 2209q-1 5 11 25q4 11 10 25t10 22q29 54 51.5 89.5t67.5 70.5l229 174l230 168q55 41 106 73l91 58q4 4 8 4t0 -10q-35 -53 -77 -106.5 t-89 -94.5l-249 -182l-165 -129l-113 -93l-71 -62q-25 -21 -32 -26l-13 -9q-4 -2 -5 3z"/>
<glyph unicode="ں" horiz-adv-x="1561" d="M143 0q0 156 40 306.5t104 293.5q16 35 25.5 43t12.5 0t0 -28.5t-12 -45.5q-12 -32 -25.5 -77.5t-23.5 -96.5t-17 -104t-7 -103q0 -98 26.5 -191t78.5 -167t133 -118t190 -44q86 0 161.5 21.5t142 60.5t124 95.5t106.5 125.5q41 56 75 121.5t38 134.5q0 9 1 27t1 39v37 v28q0 131 -10.5 261.5t-6.5 263.5l36 152l36 155q2 12 7 14t7 -10q3 -16 5 -57t4 -87t5 -88t3 -59v-26q0 -7 1 -29.5t3 -51t4 -62.5t3 -63.5t2 -52t1 -28.5v-2q0 -70 -3 -140.5t-17 -138.5q-23 -114 -54.5 -218.5t-78.5 -211.5q-39 -92 -102.5 -182t-145.5 -164t-179.5 -120 t-205.5 -46q-68 0 -134.5 21.5t-124 60.5t-102.5 92t-71 117q-33 82 -44.5 169t-11.5 173z"/>
<glyph unicode="ھ" horiz-adv-x="915" d="M-132 -150.5q-9 5.5 13 19.5q29 25 62.5 40t64.5 36q60 96 114 196.5t116 198.5l38 66q21 36 45.5 68t55.5 54.5t72 24.5q61 0 88.5 -42t29.5 -101h2q27 12 57.5 32.5t75.5 20.5q54 0 83.5 -40t25.5 -89q-6 -78 -54 -148.5t-102 -138.5q-24 -31 -55 -56.5t-65 -35.5 l-280 -51l-280 -49q-8 -2 -33.5 -6.5t-45.5 -4.5q-19 0 -28 5.5zM98 -6q13 6 40.5 23.5t58 35t56.5 35.5t38 25q16 12 49 34.5t65.5 50t56 58.5t23.5 57q0 37 -23.5 53.5t-58.5 16.5q-47 0 -95 -47t-90 -110.5t-73.5 -130t-46.5 -101.5zM342 35l92 23q60 14 121 36.5 t110.5 56t55.5 80.5q0 41 -32 57.5t-64 16.5q-39 0 -74 -22.5t-57 -53.5l-76 -97z"/>
<glyph unicode="ہ" horiz-adv-x="651" d="M94 27q0 45 5 84t20 82q2 2 7 17l11 32l11 34q6 15 8 19q2 6 6 19.5t4 15.5l20 142q9 71 11 144q6 21 29.5 29t45.5 8h29q115 0 169 -74.5t54 -179.5q2 -77 -18.5 -168.5t-62.5 -170t-100 -131t-128 -50.5q-61 2 -91 48t-30 100zM166 131q0 -41 19.5 -74.5t66.5 -33.5 q31 0 61.5 17t54 44t39 58.5t15.5 62.5t-20.5 60.5t-50 50t-64.5 27.5t-66 -7q-10 -8 -20.5 -35t-18.5 -59.5t-12 -63.5t-4 -47z"/>
<glyph unicode="ۂ" horiz-adv-x="651" d="M45 904q6 25 15.5 50.5t21.5 54.5q14 -11 35.5 -23t44.5 -12q37 0 56.5 33.5t40 75.5t49 77t87.5 35q9 0 24 -4t28 -14q-13 -31 -29 -65t-33 -60q-18 0 -43.5 -5.5t-50.5 -23.5q-18 -18 -32.5 -46t-33 -52.5t-44 -43t-62.5 -18.5q-25 0 -43 14.5t-31 26.5zM94 27 q0 45 5 84t20 82q2 2 7 17l11 32l11 34q6 15 8 19q2 6 6 19.5t4 15.5l20 142q9 71 11 144q4 15 16 22t28.5 11t30.5 4h29q57 0 99 -20.5t70 -54t41 -79.5t13 -100v-49q-2 -31 -15 -78t-33.5 -99t-48.5 -105.5t-61.5 -94.5t-71.5 -67.5t-79 -26.5q-31 0 -53.5 13.5t-37.5 34 t-22.5 46t-7.5 54.5zM166 131q0 -20 4 -39.5t15.5 -35t27.5 -24.5t39 -9q31 0 61.5 17t54 44t39 58.5t15.5 62.5t-20.5 60.5t-50 50t-64.5 27.5t-66 -7q-10 -8 -20.5 -35t-18.5 -59.5t-12 -63.5t-4 -47z"/>
<glyph unicode="ۃ" horiz-adv-x="651" d="M-20 1262q-13 12 0 24l100 104l102 105q8 8 8 4q0 -2 9 -12q65 -94 153 -162l86 89l86 87q11 10 13 11t14 -11l78 -79l78 -79q12 -8 2 -18l-89 -94l-88 -94q-10 -11 -13 -12t-13 10l-40 39l-44 44l-42 38q-20 18 -34 28l-86 -89l-88 -89q-8 -10 -20 -2q-41 33 -90.5 78 t-81.5 80zM94 27q0 45 5 84t20 82q2 2 7 17l11 32l11 34q6 15 8 19q2 6 6 19.5t4 15.5l20 142q9 71 11 144q4 15 16 22t28.5 11t30.5 4h29q57 0 99 -20.5t70 -54t41 -79.5t13 -100v-49q-2 -31 -15 -78t-33.5 -99t-48.5 -105.5t-61.5 -94.5t-71.5 -67.5t-79 -26.5 q-31 0 -53.5 13.5t-37.5 34t-22.5 46t-7.5 54.5zM166 131q0 -20 4 -39.5t15.5 -35t27.5 -24.5t39 -9q31 0 61.5 17t54 44t39 58.5t15.5 62.5t-20.5 60.5t-50 50t-64.5 27.5t-66 -7q-10 -8 -20.5 -35t-18.5 -59.5t-12 -63.5t-4 -47z"/>
<glyph unicode="ی" horiz-adv-x="1778" d="M143 -2q2 92 10.5 170t26 154.5t46 161.5t75.5 196q12 33 26.5 39t6.5 -35q-35 -117 -66.5 -243t-31.5 -251q0 -92 25.5 -186t77.5 -169t131 -122t183 -47q181 0 311 88t230 230l40 60q23 36 36.5 72t5.5 65.5t-57 41.5q-54 4 -102 17.5t-83 40t-55.5 69.5t-20.5 109 q0 116 30 227t83 212t129 188.5t168 156.5q6 6 27.5 20.5t51.5 30t62.5 29.5t60 19.5t46 -3t18.5 -34.5v-7q-14 -61 -34 -120l-44 -119q-6 -27 -13 -30t-17 3l-24 14q-13 9 -29 7q-54 -6 -109 -38t-108.5 -77t-99.5 -97.5t-81 -99.5l-21 -35q-10 -18 -10 -36q0 -43 26 -69 t62.5 -41t77.5 -21.5t70 -8.5q27 -18 43 -53t25.5 -75t12.5 -79.5t3 -66.5q0 -59 -12.5 -113.5t-30.5 -109.5q-37 -111 -100.5 -228.5t-149.5 -216t-196.5 -162t-243.5 -63.5q-131 0 -220 55.5t-155 145.5q-53 86 -81 194.5t-32 239.5z"/>
<glyph unicode="ے" horiz-adv-x="2513" d="M14 98q6 25 20.5 47.5t33 42t39 39t36.5 37.5q4 6 25.5 35t40.5 51q49 60 102.5 111t128.5 82q43 18 89 31.5t91.5 30t86.5 39t71 58.5q4 5 12.5 14t16.5 19l15 19q7 8 7 10q2 2 7 12l12 20l11 21t7 12q2 5 7.5 10t7.5 7q0 -2 1 -7t1 -8q0 -38 -28 -81t-46 -74 q-39 -66 -106.5 -127.5t-143.5 -81.5l-160 -41q-41 -10 -73.5 -29.5t-61.5 -46.5q-10 -14 -25.5 -29.5t1.5 -35.5q34 -43 94.5 -70t129 -40t137.5 -19t120 -9q180 -12 354 -17t355 -5h38q25 0 68 2l110 5q68 3 168.5 9l239.5 15l326 22q30 4 40.5 2t10.5 -6t-10 -12 q-140 -115 -294.5 -164t-330.5 -72q-248 -16 -493.5 -20t-493.5 -4q-154 -2 -307.5 10t-282.5 41q-24 6 -60 16.5t-68 27.5t-54.5 41.5t-22.5 59.5z"/>
<glyph unicode="ۓ" horiz-adv-x="2705" d="M143 90q7 25 22 48.5t39 51.5l59 64l77 88q53 66 118.5 118t151.5 81l246 82q33 14 56.5 37.5t31.5 58.5q8 98 2 203.5t6 203.5q17 58 43.5 116t55.5 149q4 12 10 18t10 -8q2 -55 4 -130t2 -126q0 -98 -7 -201.5t-39 -197t-95.5 -169t-175.5 -118.5l-50 -13l-73 -21 l-74 -21l-49 -13q-70 -16 -102 -47q-17 -16 -30 -25.5t-24 -19.5v-2q0 -4 11 -21q34 -43 94.5 -68.5t129.5 -39.5t137.5 -20.5t119.5 -8.5q180 -12 359.5 -17t387.5 -5q31 0 90.5 2t164 8t264.5 17l393 26q31 4 41 2t10 -6q0 -2 -10 -12q-140 -115 -294.5 -164t-330.5 -72 q-248 -16 -493.5 -20t-493.5 -4q-154 -3 -307.5 9.5t-282.5 41.5q-24 6 -60 16t-68 27.5t-54.5 42t-22.5 59.5zM760 1581q6 25 15 50.5t22 54.5q14 -11 35.5 -23t44.5 -12q36 0 55.5 34.5t39 75.5t49.5 76t89 35q8 0 23.5 -4t27.5 -15q-12 -30 -28.5 -64t-32.5 -60 q-19 0 -44.5 -5.5t-49.5 -23.5q-19 -19 -33.5 -46.5t-32.5 -52t-43 -43t-63 -18.5q-25 0 -43.5 14.5t-30.5 26.5z"/>
<glyph unicode="۔" horiz-adv-x="1075" d="M148.5 -84q5.5 8 9.5 18l131 142q10 14 38.5 17t41.5 3h127h151h150h118q17 0 11 -5l-11 -9q-28 -29 -68 -64.5t-79 -64.5q-20 -16 -46 -29.5t-52 -15.5q-17 0 -53.5 -1t-86.5 -1h-102h-106h-95h-67q-17 2 -11.5 10z"/>
<glyph unicode="۰" horiz-adv-x="709" d="M143 479q0 4 28 42l61 81l63 79q29 36 31 36q24 -17 60 -47l72 -64l66 -60l41 -40q-4 -8 -31 -43l-59 -75l-63 -74q-29 -33 -37 -40q-10 5 -43 32l-70 58q-37 33 -70.5 66t-48.5 49z"/>
<glyph unicode="۱" horiz-adv-x="434" d="M146.5 -137q-3.5 2 3.5 31q2 18 4 48l4 58q2 29 4 51.5t2 26.5v651q8 72 38 151l58 148q19 45 25 38t4 -91v-563q0 -244 -92 -459l-22 -45q-11 -23 -18 -35t-10.5 -10z"/>
<glyph unicode="۲" horiz-adv-x="791" d="M143 823q0 19 7.5 63t19.5 88t24.5 75.5t22.5 27.5q6 -65 41 -103t88 -50q66 -17 130.5 0.5t96.5 60.5l25 37q14 22 25.5 34.5t17.5 9.5t0 -38q-10 -57 -31.5 -133t-62.5 -140.5t-103.5 -104.5t-156.5 -23q0 -41 3 -80t3 -80q0 -156 -30 -310.5t-99 -295.5 q-8 -11 -12.5 -8.5t-4.5 8.5t1.5 15t1.5 15q14 129 24 268.5t0 268.5q0 27 -5 83l-10 117q-5 62 -10.5 116.5t-5.5 78.5z"/>
<glyph unicode="۳" horiz-adv-x="838" d="M143 799v24q0 13 7.5 55t18.5 87t25.5 79.5t28.5 34.5h2q15 -86 59 -122.5t130 -36.5q51 0 86 21.5t69 62.5q6 6 13 19l16 27q8 15 15.5 25t15.5 10q10 0 11 -8t-2 -21l-6 -25q-3 -13 -1 -21q0 -19 13 -29t30.5 -15t36 -7.5t30.5 -2.5q25 0 56.5 12.5t52.5 28.5 q12 9 22.5 25t19.5 32l16 30q7 12 12 12q10 0 12 -8.5t2 -14.5q0 -37 -20.5 -95t-52.5 -118.5t-71.5 -111t-76.5 -68.5q-29 -14 -62 -18.5t-61.5 3t-52 27t-35.5 53.5q-23 -34 -43.5 -57.5t-45 -38t-55 -19.5t-71.5 -5q0 -60 3 -121.5t3 -120.5q0 -74 -2 -133.5 t-10.5 -114.5t-24.5 -108.5t-43 -114.5q-10 -23 -18.5 -39t-13.5 -18t-5 14t8 59q21 217 4.5 435.5t-45.5 435.5z"/>
<glyph unicode="۴" horiz-adv-x="860" d="M147.5 482.5q-4.5 74.5 2.5 148.5q0 2 2 13l5 26q3 16 5 30.5t4 22.5q10 49 27.5 103.5t47 99.5t73.5 74.5t106 29.5q45 0 82 -18.5t64.5 -48t44 -69.5t20.5 -83q24 57 56 115.5t72 109.5t88 94.5t107 69.5q0 -47 -10 -105.5t-20 -105.5q-136 -106 -218.5 -233 t-140.5 -289h-10q-2 0 -5 19.5t-8 46t-11.5 53t-12.5 41.5q-20 43 -58 72.5t-87 29.5q-15 0 -40.5 -5t-49 -16.5t-41 -26.5t-15.5 -34q6 -100 18.5 -197.5t12.5 -197.5q0 -84 -9 -163t-32 -157q-8 -34 -16 -55.5t-13.5 -27t-8.5 8t1 48.5q0 127 -7 228.5t-14 187.5 t-11.5 160.5z"/>
<glyph unicode="۵" horiz-adv-x="1114" d="M143 111q0 59 14.5 125.5t52.5 156.5t106.5 213t177.5 297q8 15 21 50.5t25 73.5l22 67q9 28 13 28q11 0 31.5 -16t30.5 -25q57 -55 117.5 -123.5t107.5 -145.5t78 -160t31 -169q0 -37 -8.5 -92t-23.5 -116.5t-40 -122t-58.5 -109.5t-74.5 -80t-92 -31q-66 0 -104 42 t-52 104l-34 -64q-19 -34 -43.5 -62t-56.5 -46.5t-75 -18.5q-47 0 -77.5 19.5t-51 52.5t-29 72t-8.5 80zM262 295q0 -51 40 -83t89 -36t88 28t65.5 70.5t55.5 106.5q6 0 9 -23.5t15.5 -51t40 -51.5t80.5 -24q23 0 57 4.5t50 26.5q2 39 -9.5 87t-31.5 96.5t-45 91.5t-47 73 l-37 52l-54.5 71t-58 65.5t-47.5 32.5l-74 -117q-45 -73 -85.5 -152t-70.5 -151.5t-30 -115.5z"/>
<glyph unicode="۶" horiz-adv-x="752" d="M76 815q0 12 2 34.5t7 50.5l10 56q5 29 11 52q9 20 15 26t10 5t6 -4t4 -41t62.5 -87t152.5 -49q86 0 133.5 45t75.5 111q25 69 34 58t3 -93q-2 -111 -5 -216.5t-5 -217.5q-4 -80 -6 -162t-9.5 -164t-22.5 -162t-44 -155q-8 -21 -15.5 -36.5t-13.5 -19.5t-8 6.5t2 43.5 q-2 90 1 181l6 181q3 90 1 180t-14 180q-68 -45 -139.5 -52t-129 19.5t-93 85t-31.5 144.5z"/>
<glyph unicode="۷" horiz-adv-x="999" d="M143 233q0 29 8.5 57.5t22.5 53.5q105 188 256.5 352t317.5 314q20 16 25 14t-11 -25q-8 -14 -22 -35l-26 -42l-22 -34q-10 -16 -12 -18q-160 -204 -356 -405q120 -109 255.5 -206t276.5 -183q-4 -19 -25.5 -54.5t-47 -73.5t-51 -68t-38.5 -36q-18 2 -64 26t-103.5 60.5 t-121 81.5t-118 88t-94 79t-50.5 54z"/>
<glyph unicode="۸" horiz-adv-x="1194" d="M154.5 -107.5q-11.5 -5.5 1.5 37.5l185 439l187 438q23 47 41.5 92t40.5 86q6 4 10.5 5t19.5 -19.5t47 -71.5l91 -149l144 -292q71 -149 129 -296l-39 -66q-17 -28 -36 -55l-37 -53l-44 -60q-47 90 -88 182l-81 185q-40 92 -84 183t-97 179q-74 -159 -140.5 -322 t-156.5 -317q-4 -8 -23.5 -38.5t-39 -56t-31 -31z"/>
<glyph unicode="۹" horiz-adv-x="823" d="M143 504v2q7 61 23 127.5t38.5 132t50.5 129t56 117.5q49 69 95.5 93.5t87.5 16.5t75.5 -43t59 -86t38 -111.5t13.5 -119.5q0 -174 -14.5 -350t-57.5 -342q-51 -154 -76.5 -205t-11.5 29q10 81 16.5 164t6.5 182q0 8 -1 32l-2 48l-2 46q-1 23 -1 31q-43 -65 -110 -88.5 t-129 -8.5t-107.5 67.5t-47.5 136.5zM254 700q0 -34 19.5 -59t48 -40t61.5 -22.5t61 -7.5q15 0 34.5 2t35.5 8.5t28.5 16.5t14.5 29q0 37 -13.5 74.5t-37 69.5t-57 52.5t-72.5 20.5q-27 0 -49.5 -13.5t-39 -34t-25.5 -46t-9 -50.5z"/>
<glyph unicode=" " horiz-adv-x="1645"/>
<glyph unicode=" " horiz-adv-x="3290"/>
<glyph unicode=" " horiz-adv-x="1645"/>
<glyph unicode=" " horiz-adv-x="3290"/>
<glyph unicode=" " horiz-adv-x="1096"/>
<glyph unicode=" " horiz-adv-x="822"/>
<glyph unicode=" " horiz-adv-x="548"/>
<glyph unicode=" " horiz-adv-x="548"/>
<glyph unicode=" " horiz-adv-x="411"/>
<glyph unicode=" " horiz-adv-x="658"/>
<glyph unicode=" " horiz-adv-x="182"/>
<glyph unicode="‐" horiz-adv-x="963" d="M143 283v123q133 0 311.5 1t364.5 1v-125h-676z"/>
<glyph unicode="‑" horiz-adv-x="963" d="M143 283v123q133 0 311.5 1t364.5 1v-125h-676z"/>
<glyph unicode="‒" horiz-adv-x="963" d="M143 283v123q133 0 311.5 1t364.5 1v-125h-676z"/>
<glyph unicode="–" horiz-adv-x="1311" d="M143 283v123q201 0 471.5 1t552.5 1v-125h-1024z"/>
<glyph unicode="—" horiz-adv-x="2335" d="M143 283v123q403 0 943.5 1t1104.5 1v-125h-2048z"/>
<glyph unicode=" " horiz-adv-x="658"/>
<glyph unicode=" " horiz-adv-x="822"/>
<glyph unicode="◌" horiz-adv-x="1450" d="M100 410h197q16 -107 82 -195l-139 -139q-62 74 -95.5 157.5t-44.5 176.5zM100 545q11 90 44.5 174t93.5 155l141 -139q-66 -88 -82 -190h-197zM328 -12l139 139q92 -68 190 -82v-195q-90 11 -174 44.5t-155 93.5zM330 965q71 59 155 92t172 43v-197q-100 -16 -188 -80z M786 43q113 20 199 84l137 -137q-73 -62 -158 -95.5t-178 -44.5v193zM788 903v197q187 -19 334 -139l-139 -140q-92 68 -195 82zM1071 731l139 141q60 -71 93.5 -155t44.5 -172h-195q-18 106 -82 186zM1075 217q66 90 78 193h197q-11 -88 -43.5 -173t-92.5 -157z"/>
<glyph unicode="" horiz-adv-x="500" d="M0 0v0v0v0v0z"/>
<glyph unicode="﷽" horiz-adv-x="8137" d="M143 -694q0 20 1 62t1 95q0 52 1 107t1 102v90q7 158 37.5 307.5t97 272.5t174 209t269.5 117q-16 10 -28.5 15t-12.5 19q0 13 4 21t12 22q31 64 75 143t102.5 147.5t130 115.5t157.5 51q31 0 47.5 -6t27.5 -13l24 -15q12 -9 36 -13q70 -20 121 19q52 38 101 92.5 t75 113.5q-14 9 -41 24l-60 32l-62 32q-29 15 -48 23q-86 35 -171 15.5t-142 -85.5q4 47 28.5 92.5t61.5 79t79 54t83 20.5q37 0 76 -13.5t78 -33.5l77 -42q39 -22 78 -38q35 -10 49 -10q13 0 32.5 5t35.5 5t20.5 -8t-14.5 -33l-321 -428q-11 -16 -28 -34.5t-37.5 -35 t-44 -26.5t-44.5 -10q-22 -2 -41.5 5t-38.5 18l-36 22q-17 10 -38 14q-71 10 -127.5 -12.5t-109.5 -63.5q24 -12 52 -27.5t52.5 -36t43 -44t26.5 -52.5q6 -55 -9.5 -101t-43.5 -93q-47 -72 -125 -114t-160 -58q-6 0 -28.5 -3t-48 -7t-48 -8.5t-29.5 -6.5q-110 -28 -197 -102 t-118 -191q-4 -18 -8 -50l-8 -64q-4 -33 -6.5 -58.5t0.5 -27.5q-3 -365 -4 -719t-5 -721v-43q0 -25 -10 -41h-2q-4 0 -7 7t-6 16.5t-5 17.5t-2 10q-9 96 -17 213t-15 234.5t-12.5 229.5t-7.5 198zM616 -603q1 4 8 12l100 103q49 53 102 104q8 8 8 6q0 -6 9 -14 q61 -92 153 -160l86 88l86 88q11 11 13 12t14 -12l78 -78l78 -79q12 -9 2 -19l-89 -94l-87 -94q-11 -10 -14 -11t-13 9l-84 81q-47 44 -76 68l-86 -89l-88 -91q-8 -8 -20 -2q-41 33 -90.5 79t-81.5 81q-9 8 -8 12zM848 1952q18 12 55 32l76 42l73 40q33 17 46 23q2 0 9 4 t15 10l16 11q7 6 7 10q0 10 -20.5 13t-37.5 3h-14h-43q-12 0 -39 -10q-16 -6 -20 -11t-19 -5q0 22 14 42l25 35q39 56 89 66t116 6q23 -4 34 -14.5t11 -32.5q0 -23 -22.5 -56.5t-53 -68.5t-64.5 -61.5t-54 -32.5l-136 -36l-59 -15q0 2 -2 3t-2 3zM1167.5 -47q6.5 6 46.5 33 l127 86l240 166q49 32 72.5 79.5t38.5 98.5l30 102q15 51 50 94q18 23 37.5 44.5t43.5 37.5q17 13 43.5 25t52 26.5t46 32t26.5 39.5q2 19 5.5 63t5.5 93t4 93t2 62q0 50 -1 108t-1 114q0 57 3 106t13 78l109 321h4q10 -192 6 -375.5t-17 -385.5q-6 -78 -21 -161t-43 -162 t-71 -150.5t-104 -126.5q-19 -17 -41.5 -29t-45 -26.5t-43 -30t-34.5 -37.5q-6 -9 -18.5 -37.5t-24.5 -59.5l-24 -62l-15 -40q-18 -43 -36.5 -72.5t-41 -50t-55.5 -34t-78 -23.5l-65 -12l-88 -15q-45 -8 -84 -13t-52 -5q-8 0 -1.5 6zM1548 1978q8 23 22.5 60t31.5 51 l228 130l154 83q62 33 104 52l83 38q-6 -12 -19 -32l-25 -38q-13 -20 -27.5 -36.5t-26.5 -24.5q-127 -61 -217 -113l-152 -88l-98 -58q-37 -22 -58 -24zM1563 852q0 27 1 54.5t9 51.5q0 5 7 22t9 21q0 3 2 7t2 6q4 -27 0 -52.5t-4 -52.5q0 -16 6.5 -37.5t28.5 -21.5 q21 0 30 15.5t13 35t5 40t5 30.5l11 29q8 20 16 30v-104q0 -25 24.5 -36t43.5 -7q0 47 3 88t25 82v-127q0 -15 -3 -36.5t-11 -42t-20.5 -34.5t-32.5 -14q-23 0 -36.5 13t-19.5 28q-10 -21 -23.5 -44.5t-41.5 -23.5q-31 0 -40 28.5t-9 51.5zM1907 -362q0 159 40 307.5 t99 296.5q0 4 6 15t6 13q6 6 8 6v-30l-50 -208q-23 -104 -23 -214q0 -98 24.5 -196.5t76.5 -175.5t133 -125t192 -48q166 0 298 77t224 214q63 98 110.5 195.5t49.5 214.5q0 122 -1 241t-16 236q0 2 -2 11t-3 19.5t-3 19.5t-2 11q0 29 9 71t38 62q23 -22 51.5 -27.5t58 -1 t58.5 16.5t51 27q45 28 66 71l43 88q45 95 137 148q49 80 99.5 151.5t136.5 114.5l76 37l87 44l83 42q40 22 67 41q-4 8 -35 13t-69.5 8t-74.5 4.5t-48 1.5q-39 0 -69 -1.5t-55.5 -8.5t-50 -23.5t-51.5 -46.5l-20 -23q-10 -12 -19.5 -21.5t-15.5 -10.5t-6 12q22 71 62 118.5 t94 96.5q24 22 62 33.5t78 15.5t79 3t69 -1q37 0 84 -1t88 -5q29 4 29 -13q0 -4 -1 -11t-3 -17l-66 -102q-34 -52 -74 -99t-87.5 -86t-104.5 -61q-16 -7 -43 -16l-55 -18q-27 -9 -50.5 -19.5t-35.5 -18.5q41 -37 79 -88t38 -113q0 -14 -15.5 -51t-37 -75t-44 -67.5 t-37.5 -29.5q-16 0 -29.5 9t-25.5 16q-27 14 -55.5 22t-57.5 8q-40 0 -69 -16t-53 -45l-51 -86q-29 -47 -68 -78q-4 -4 -18 -16l-32 -24l-32 -24q-14 -10 -21 -12q-14 -6 -16 -26q-8 -142 -20.5 -272t-40.5 -271q-29 -139 -86.5 -294t-147.5 -287t-218 -218t-296 -86 q-141 0 -234.5 57.5t-148.5 149.5t-78.5 210t-23.5 239zM2380 16l68 106l48 70q19 27 31.5 41.5t24.5 24.5q2 0 8 -3t28 -19l65 -48l126 -94q8 -6 13.5 -15t0.5 -22l-35 -51q-22 -33 -48.5 -67.5t-54 -65.5t-50.5 -45l-130 91q-65 44 -95 97zM2418 2016.5q-1 70.5 17 129.5 l90 293q4 -4 7 -46t5.5 -107.5t4.5 -147.5t3 -166t3 -161.5t4 -135.5v-182q0 -135 -13.5 -262t-62.5 -258q-6 -17 -20.5 -48.5t-26.5 -43.5q0 71 3 144t3 144q0 181 -8 359t-8 358q0 60 -1 130.5zM3224 1331l24 195q4 104 10.5 202.5t10.5 202.5q2 31 10 62.5t20 60.5 q6 12 19 41l26 61q13 31 26 58t21 35q-12 -191 -20 -305.5t-12 -178t-7.5 -88t-5.5 -32.5q-14 -74 -36.5 -139.5t-55.5 -133.5q-6 -10 -13 -20.5t-17 -20.5zM3617 -113q0 2 6 8.5t46 34.5l125 86l243 164q49 33 71.5 79t37.5 97l31 103q15 51 50 94q16 22 36.5 43.5 t45.5 38.5q16 12 43 24.5t52.5 26.5t46 31.5t26.5 40.5q0 18 2 62t5 94.5t6 94.5t3 62q0 49 -1 107.5t-1 113.5q0 58 3 106t14 77l108 323h4q8 -192 5 -376.5t-15 -387.5q-6 -78 -21.5 -160.5t-43 -161.5t-70.5 -149.5t-105 -126.5q-18 -16 -40.5 -28.5t-45 -26.5t-43 -29.5 t-34.5 -38.5q-7 -8 -19 -35.5t-24 -61.5l-24 -64l-15 -39q-19 -43 -37.5 -73t-42 -50.5t-55 -33.5t-76.5 -22q-25 -6 -68 -14t-87 -15t-84 -12.5t-58 -5.5zM4006 780q0 27 1 54.5t9 54.5q0 4 7 20.5t10 20.5l4 12q4 -27 0 -51.5t-4 -52.5q0 -15 6 -37.5t28 -22.5 q21 0 30 15.5t13 36t5 41t6 30.5q4 8 11 27.5t15 32.5v-107q0 -23 24.5 -34t43.5 -7q0 47 3 87t25 81v-127q0 -14 -3 -35.5t-11 -42t-20.5 -35t-32.5 -14.5q-23 0 -36 14.5t-19 28.5q-11 -22 -24 -45t-42 -23q-31 0 -40 28t-9 50zM4014 1911q10 22 24.5 60t30.5 50l229 131 l154 82q62 33 104 52l81 38q-4 -10 -15.5 -28.5t-27.5 -37.5l-29 -37q-14 -17 -25 -26q-127 -61 -217 -112l-153 -89l-98 -60q-37 -21 -58 -23zM4463 -274q0 116 12 245t53 246t120 207t214 127q22 6 63 10t66 6q10 23 26.5 53.5t39.5 49.5h4q2 0 5 -9.5t8 -20.5t9 -22.5 t10 -15.5q41 -35 99.5 -46t105.5 -19q230 -23 446 -29t445 22q96 13 170 26t144.5 30.5t148.5 39.5l182 54q8 2 30.5 9t73 28.5t134.5 61.5l213 106q88 41 179 99t167 132t128 163t62 194q4 24 5 70t6 81q4 35 7 39t3 10l62 97q32 49 71 90q0 -11 -4 -46l-9 -81l-12 -89.5 t-10 -68.5q-29 -176 -98.5 -324.5t-171 -271.5t-230.5 -223.5t-276 -180.5q-68 -40 -184.5 -90.5t-269 -99.5t-336 -90t-384 -63.5t-412.5 -18.5t-421 45q-4 -6 -9 -20.5t-12.5 -28.5t-15.5 -25.5t-16 -11.5q-2 2 -12.5 15.5t-25 28.5t-20.5 17q-35 21 -68.5 32t-74.5 11 q-88 0 -147.5 -33.5t-97.5 -88t-58.5 -126t-28.5 -147.5t-9 -150.5t-1 -136.5v-14q0 -18 1 -66.5t4 -157t9 -294.5t17 -481v-23q0 -12 -1 -28.5t-3.5 -32t-6.5 -25.5t-12 -10h-4l-7 20q-5 15 -12.5 62t-18.5 137t-28 248l-17 339q-7 136 -11 223t-6 134t-2 70v31z M4848 1948.5q-2 70.5 16 130.5l92 293q4 -5 7 -46.5t5 -107.5l4 -148q3 -81 4 -165t3 -162t4 -135v-183q0 -135 -14.5 -260t-63.5 -260q-6 -16 -19.5 -48t-25.5 -44q-2 72 2 144.5t4 144.5q0 180 -8 358t-8 359q0 59 -2 129.5zM5425 674q105 94 197 186t178 203q10 14 26 48 l34 70q18 36 34.5 62.5t28.5 26.5q0 -23 -3 -44.5t-3 -43.5q0 -31 14 -56.5t36.5 -44t51.5 -29t57 -10.5q48 0 85.5 22.5t67.5 56.5t50.5 76t32.5 81q4 16 12 15t8 -9q5 -92 54 -119q20 -12 55 -19t70.5 -6t67.5 11t46 31q11 18 13 50t2 73v239q10 86 41.5 170t74.5 154 v-273q0 -75 -1 -119t-1 -69q0 -23 -1 -29t-1 -8q-10 -53 -35.5 -137t-67.5 -166t-100.5 -140.5t-134.5 -58.5q-139 0 -184 129l-43 -75q-23 -39 -51.5 -70t-64.5 -50.5t-85 -19.5q-51 0 -81.5 19.5t-47 51.5t-23.5 73t-9 82q-25 -66 -54.5 -113t-67.5 -84t-86 -64.5 t-110 -52.5q-14 -4 -35.5 -12t-38.5 -8h-8zM6138 1544v64q0 24 10 65q0 4 10.5 24.5t10.5 26.5q0 2 2 7.5t2 7.5q4 -31 0 -62.5t-4 -62.5q0 -19 6 -46.5t35 -27.5q24 0 36.5 18.5t17.5 43t6 49t5 37.5l13 34q10 23 18 37v-127q0 -28 29.5 -41.5t52.5 -9.5q2 57 6 106.5 t31 98.5v-154q0 -18 -4.5 -43.5t-13.5 -50.5t-24.5 -42t-39.5 -17q-29 0 -44.5 17t-23.5 34q-10 -25 -27.5 -53.5t-50.5 -28.5q-39 0 -49 32.5t-10 63.5zM6255 1851q-2 33 6 65t10 64l10 312q0 4 3 17t7 20q5 10 13 31.5t18 45.5l20 44q9 22 15 32q0 -22 -2 -74.5t-5 -111 t-5 -111.5t-2 -78q-2 -22 -8.5 -59t-16.5 -75t-26.5 -72.5t-36.5 -49.5zM7001 2183.5q-1 69.5 17 128.5l91 295q4 -6 7 -49t5 -108.5t4 -147.5t3 -165t3 -161t4 -135v-182q0 -129 -13 -258t-63 -260q-6 -17 -20 -48.5t-27 -43.5q0 71 3 143t3 143q0 181 -8 359t-8 358 q0 62 -1 131.5zM7459 387l192 209l181 -182l-195 -205q-16 12 -45 39l-56 56l-50 52q-23 25 -27 31zM7733 39q0 12 2 37.5t11 34.5l247 247q-4 -16 -11 -46.5t-17 -41.5z"/>
<glyph horiz-adv-x="213" d="M143 369v22q0 10 1 28.5t1 37.5q0 18 1 31.5t1 15.5q0 8 3.5 45t6.5 84l6 94l5 76q2 39 5 80t9 97l14 131q7 75 19 181q0 2 8 17.5t13 23.5l61 115q29 55 51 117q6 16 10 6v-53l-44 -371l-44 -371q-4 -41 -4 -80v-78q0 -40 -4 -83t4 -84q-28 -66 -50.5 -131.5 t-51.5 -131.5q-6 23 -9 45.5t-8 45.5q0 6 -1 22t-2 34.5t-1 33.5z"/>
<glyph horiz-adv-x="2103" d="M145 227q-2 74 13.5 169.5t42.5 174.5l5 11q3 6 7 6q6 0 7 -7.5t1 -11.5q2 -22 -1 -43.5t-3 -44.5q2 -71 39 -118.5t92 -77t121 -46t123 -24.5q49 -10 118.5 -16t141.5 -10.5t134.5 -5.5t96.5 -1h88q68 0 164.5 7.5t213 23.5t239.5 49q70 19 129 39.5t106 50.5 q25 17 48.5 40.5t39.5 45.5v-106q-16 -33 -35.5 -64.5t-25.5 -42.5q-84 -121 -218 -186.5t-288.5 -96t-313.5 -37.5t-294 -14h-152q-102 0 -212.5 10.5t-204 46.5t-154.5 102.5t-68 176.5zM907 -567q0 4 11 14l87 94l87 94q6 9 14 0l82 -81l82 -80q8 -9 9 -11t-7 -12 l-87 -94l-87 -94q-11 -11 -13 -12t-12 10l-79 77l-76 78q-11 11 -11 17z"/>
<glyph horiz-adv-x="2103" d="M145 227q-2 74 13.5 169.5t42.5 174.5l5 11q3 6 7 6q6 0 7 -7.5t1 -11.5q2 -22 -1 -43.5t-3 -44.5q2 -71 39 -118.5t92 -77t121 -46t123 -24.5q49 -10 118.5 -16t141.5 -10.5t134.5 -5.5t96.5 -1h88q68 0 164.5 7.5t213 23.5t239.5 49q70 19 129 39.5t106 50.5 q25 17 48.5 40.5t39.5 45.5v-106q-16 -33 -35.5 -64.5t-25.5 -42.5q-84 -121 -218 -186.5t-288.5 -96t-313.5 -37.5t-294 -14h-152q-102 0 -212.5 10.5t-204 46.5t-154.5 102.5t-68 176.5zM706 -584q1 4 7 13l100 103q49 52 102 103q9 9 9 7q0 -7 8 -15q61 -92 153 -159 l86 88l86 88q11 10 13 11t14 -11l78 -79l78 -79q12 -8 2 -18l-89 -95l-87 -94q-11 -10 -14 -11t-13 9l-39 39l-44 44q-21 22 -41.5 39t-35.5 28l-86 -89l-88 -92q-8 -8 -20 -2q-41 33 -90.5 79t-81.5 81q-8 8 -7 12zM891 -877q0 5 10 15l86 94l86 94q6 8 8 8t9 -6l163 -164 q9 -8 10 -10t-8 -10l-88 -94l-88 -94q-10 -11 -12 -12t-12 9l-154 154q-10 10 -10 16z"/>
<glyph horiz-adv-x="2103" d="M145 227q-2 74 13.5 169.5t42.5 174.5l5 11q3 6 7 6q6 0 7 -7.5t1 -11.5q2 -22 -1 -43.5t-3 -44.5q2 -71 39 -118.5t92 -77t121 -46t123 -24.5q49 -10 118.5 -16t141.5 -10.5t134.5 -5.5t96.5 -1h88q68 0 164.5 7.5t213 23.5t239.5 49q70 19 129 39.5t106 50.5 q25 17 48.5 40.5t39.5 45.5v-106q-16 -33 -35.5 -64.5t-25.5 -42.5q-84 -121 -218 -186.5t-288.5 -96t-313.5 -37.5t-294 -14h-152q-102 0 -212.5 10.5t-204 46.5t-154.5 102.5t-68 176.5zM815 680q-12 12 0 25l101 103l102 105q8 9 8 5q0 -5 8 -13q64 -92 154 -162l86 89 l86 88q10 10 12 11t14 -11l78 -79l78 -79q12 -8 2 -19l-89 -94l-87 -94q-10 -10 -13 -11t-14 9l-39 39l-44 44l-42 38q-20 18 -34 28l-86 -89l-88 -89q-11 -10 -21 -2q-41 33 -90 78t-82 80z"/>
<glyph horiz-adv-x="2103" d="M145 227q-2 74 13.5 169.5t42.5 174.5l5 11q3 6 7 6q6 0 7 -7.5t1 -11.5q2 -22 -1 -43.5t-3 -44.5q2 -71 39 -118.5t92 -77t121 -46t123 -24.5q49 -10 118.5 -16t141.5 -10.5t134.5 -5.5t96.5 -1h88q68 0 164.5 7.5t213 23.5t239.5 49q70 19 129 39.5t106 50.5 q25 17 48.5 40.5t39.5 45.5v-106q-16 -33 -35.5 -64.5t-25.5 -42.5q-84 -121 -218 -186.5t-288.5 -96t-313.5 -37.5t-294 -14h-152q-102 0 -212.5 10.5t-204 46.5t-154.5 102.5t-68 176.5zM938 571q-12 4 12 19q41 22 66.5 38.5t52.5 39.5q21 39 35 91t14 89q0 14 2 43l4 61 l4 60q2 28 2 41q19 41 36.5 86t31.5 71q8 31 14 31q0 -72 -1 -116t-2 -74.5t-2 -57t-3 -63.5q21 26 39.5 35.5t56.5 13.5q39 -6 58.5 -33.5t17.5 -46.5q-14 -47 -37 -90q-12 -29 -34.5 -61.5t-47 -61.5t-47 -49.5t-34.5 -24.5q-5 0 -34 -6l-65 -13q-35 -7 -64.5 -13.5 t-33.5 -6.5q-29 -6 -41 -2zM1118 686q27 14 60.5 33.5t64.5 41t53.5 44t24.5 45.5q-6 27 -18.5 32t-30.5 5q-45 -4 -65.5 -23.5t-39.5 -46.5q-18 -26 -30.5 -60t-18.5 -71z"/>
<glyph horiz-adv-x="2103" d="M145 227q-2 74 13.5 169.5t42.5 174.5l5 11q3 6 7 6q6 0 7 -7.5t1 -11.5q2 -22 -1 -43.5t-3 -44.5q2 -71 39 -118.5t92 -77t121 -46t123 -24.5q49 -10 118.5 -16t141.5 -10.5t134.5 -5.5t96.5 -1h88q68 0 164.5 7.5t213 23.5t239.5 49q70 19 129 39.5t106 50.5 q25 17 48.5 40.5t39.5 45.5v-106q-16 -33 -35.5 -64.5t-25.5 -42.5q-84 -121 -218 -186.5t-288.5 -96t-313.5 -37.5t-294 -14h-152q-102 0 -212.5 10.5t-204 46.5t-154.5 102.5t-68 176.5zM817 696q-12 11 0 23l101 104l102 105q8 8 8 6q0 -6 8 -14q62 -93 154 -160l86 87 l86 89q10 10 12 10t15 -12l155 -156q8 -8 8 -12q0 -2 -6 -8l-89 -94l-87 -93q-10 -10 -13 -11t-14 9l-39 41l-44 42q-21 22 -41.5 39.5t-34.5 27.5l-174 -180q-9 -9 -21 -2q-41 32 -90 79zM1026 1018q-16 14 0 31l86 94l88 94q6 10 14 2l164 -164q8 -8 9.5 -10t-7.5 -10 l-87 -95l-87 -94q-10 -10 -13 -11t-13 9z"/>
<glyph horiz-adv-x="2089" d="M151.5 288.5q16.5 114.5 55.5 266.5q4 12 12 15t8 -11q-8 -78 3.5 -133t39 -93t70.5 -61.5t98 -40.5q80 -22 190.5 -36.5t236.5 -20.5t261.5 -3t263.5 12.5t241.5 26.5t199.5 42q61 18 108.5 37.5t84 47.5t65.5 68.5t53 102.5q12 22 20.5 14t0.5 -35 q-37 -204 -142.5 -325t-285.5 -182q-115 -46 -275 -69.5t-329.5 -31.5t-333.5 -3t-287 18q-158 20 -239 69t-108.5 130t-11 195.5zM903 -580q0 5 10 15l87 94l87 94q7 8 15 0l82 -81l82 -81q8 -8 9 -10t-7 -12l-87 -94l-87 -95q-11 -10 -13 -11t-12 9l-79 78l-77 78 q-10 10 -10 16z"/>
<glyph horiz-adv-x="2089" d="M151.5 288.5q16.5 114.5 55.5 266.5q4 12 12 15t8 -11q-8 -78 3.5 -133t39 -93t70.5 -61.5t98 -40.5q80 -22 190.5 -36.5t236.5 -20.5t261.5 -3t263.5 12.5t241.5 26.5t199.5 42q61 18 108.5 37.5t84 47.5t65.5 68.5t53 102.5q12 22 20.5 14t0.5 -35 q-37 -204 -142.5 -325t-285.5 -182q-115 -46 -275 -69.5t-329.5 -31.5t-333.5 -3t-287 18q-158 20 -239 69t-108.5 130t-11 195.5zM751 -592q1 4 7 12l100 104q49 52 103 103q8 8 8 6q0 -6 8 -14q61 -92 153 -160l87 88l86 88q10 11 12 12t14 -12l78 -79l78 -78q12 -8 2 -19 l-89 -94l-87 -94q-11 -10 -14 -11t-13 9l-84 81q-47 44 -76 68l-86 -89l-88 -91q-8 -8 -20 -2q-41 33 -90 79t-82 81q-8 8 -7 12zM936 -885q0 4 10 15l86 94l86 94q6 8 8 8t9 -6l163 -164q9 -8 10 -10t-8 -10l-88 -94l-88 -95q-10 -10 -12 -11t-12 9l-154 154q-10 10 -10 16 z"/>
<glyph horiz-adv-x="2089" d="M151.5 288.5q16.5 114.5 55.5 266.5q4 12 12 15t8 -11q-8 -78 3.5 -133t39 -93t70.5 -61.5t98 -40.5q80 -22 190.5 -36.5t236.5 -20.5t261.5 -3t263.5 12.5t241.5 26.5t199.5 42q61 18 108.5 37.5t84 47.5t65.5 68.5t53 102.5q12 22 20.5 14t0.5 -35 q-37 -204 -142.5 -325t-285.5 -182q-115 -46 -275 -69.5t-329.5 -31.5t-333.5 -3t-287 18q-158 20 -239 69t-108.5 130t-11 195.5zM823 733q-12 12 0 25l101 103l102 106q8 8 8 4t8 -13q33 -45 71 -86t83 -75l86 89l86 87q10 10 12 11t15 -11l77 -79l78 -79q13 -8 2 -18 l-89 -95l-87 -94q-10 -10 -13 -11t-13 9l-40 40l-44 44l-42 38l-34 28l-86 -89l-88 -89q-12 -13 -21 -3q-41 33 -90 78t-82 80z"/>
<glyph horiz-adv-x="2089" d="M144 216q1 69 18.5 153t44.5 186q2 6 5 10t6 5t6 -2t3 -9q-8 -78 3.5 -133t39 -93t70.5 -61.5t98 -40.5q60 -16 137.5 -28.5t168 -20.5t187.5 -11t196.5 -1t198.5 8t189.5 16.5t171 24.5t144.5 33q41 12 76 24.5t64.5 27.5t53 33.5t44 42t39 55.5t34.5 73q6 12 11.5 15 t8.5 -1t4 -12t-3 -23q-19 -100 -55.5 -181t-90 -142.5t-124 -107.5t-158.5 -76q-58 -23 -128.5 -39.5t-147.5 -28.5t-161 -20.5t-167.5 -12.5t-168.5 -5t-164 1t-153 7t-135 12q-104 14 -174 40.5t-113 66.5t-61.5 93t-17.5 122zM917.5 510q-12.5 4 12.5 18q41 23 66.5 39.5 t52.5 38.5q20 39 34.5 91.5t14.5 88.5q0 13 1 43.5t5 61.5t5 58.5t1 41.5q18 41 35.5 86t32.5 72q8 31 14 31q0 -74 -1 -116t-2 -75t-2 -56.5t-3 -64.5q20 27 38.5 36t57.5 14q39 -7 58.5 -34.5t17.5 -45.5q-17 -52 -37 -90l-35 -61q-18 -34 -46 -61l-48 -50 q-21 -21 -35 -25q-8 0 -33.5 -6t-64.5 -13.5t-64.5 -13.5t-34.5 -6q-28 -6 -40.5 -2zM1098 625q24 12 59 32.5t66.5 42t51 44t25.5 44.5q-6 27 -18 32t-31 5q-45 -4 -65.5 -23.5t-39 -46t-30.5 -60t-18 -70.5z"/>
<glyph horiz-adv-x="2089" d="M151.5 288.5q16.5 114.5 55.5 266.5q4 12 12 15t8 -11q-8 -78 3.5 -133t39 -93t70.5 -61.5t98 -40.5q80 -22 190.5 -36.5t236.5 -20.5t261.5 -3t263.5 12.5t241.5 26.5t199.5 42q61 18 108.5 37.5t84 47.5t65.5 68.5t53 102.5q12 22 20.5 14t0.5 -35 q-37 -204 -142.5 -325t-285.5 -182q-115 -46 -275 -69.5t-329.5 -31.5t-333.5 -3t-287 18q-158 20 -239 69t-108.5 130t-11 195.5zM807 743q-12 11 0 23l100 104l103 105q8 8 8 6q0 -6 8 -14q61 -93 154 -160l86 87l86 89q10 10 12 10t14 -12l156 -156q8 -8 8 -12 q0 -2 -6 -8l-89 -93l-87 -94q-10 -10 -13.5 -11t-13.5 9l-84 81l-75 69l-175 -180q-8 -8 -20 -2q-41 32 -90 78zM1016 1065q-17 14 0 31l86 94l88 94q6 10 14 2l164 -164q8 -8 9 -10t-7 -10l-87 -94l-87 -95q-10 -10 -13 -11t-14 9z"/>
</font>
</defs>
</svg>
