<?xml version="1.0" standalone="no"?>
<!DOCTYPE svg PUBLIC "-//W3C//DTD SVG 1.1//EN" "http://www.w3.org/Graphics/SVG/1.1/DTD/svg11.dtd" >
<svg xmlns="http://www.w3.org/2000/svg" xmlns:xlink="http://www.w3.org/1999/xlink" version="1.1">
<metadata></metadata>
<defs>
<font id="noorehudaregular" horiz-adv-x="0" >
<font-face units-per-em="2048" ascent="1638" descent="-410" />
<missing-glyph horiz-adv-x="120" />
<glyph unicode="&#x649;" horiz-adv-x="499" d="M16 200q8 -1 16.5 -1h16.5q155 0 312 77q1 2 1 8q0 9 -7 33t-15 51.5t-15 54.5t-7 42q0 19 9 56t35 103l8 -1q3 -10 8 -24q4 -12 10.5 -30.5t14.5 -42.5q20 -59 20 -130q0 -42 -7.5 -88.5t-24.5 -97.5q-69 -211 -349 -211h-21t-21 1q-21 17 -31.5 47.5t-10.5 62.5 q0 30 10 55.5t32 35.5z" />
<glyph unicode="&#x649;" horiz-adv-x="712" d="M447 59q-84 46 -100 85q-56 -42 -124.5 -75.5t-140.5 -57.5q-6 -2 -23 -5.5t-60 -5.5q-6 1 -12.5 12t-11.5 27t-8.5 35.5t-3.5 39.5q0 28 8 52t28 35q242 15 311 113q52 74 57 74q6 -14 9 -49q15 -27 39.5 -48.5t63.5 -38.5t96 -29.5t137 -21.5q14 -6 22.5 -36t8.5 -65 q0 -32 -7.5 -60.5t-23.5 -39.5q-43 0 -108 10.5t-142 41.5z" />
<glyph unicode="&#xfc31;" horiz-adv-x="499" arabic-form="isolated" d="M16 200q8 -1 16.5 -1h16.5q155 0 312 77q1 2 1 8q0 9 -7 33t-15 51.5t-15 54.5t-7 42q0 19 9 56t35 103l8 -1q3 -10 8 -24q4 -12 10.5 -30.5t14.5 -42.5q20 -59 20 -130q0 -42 -7.5 -88.5t-24.5 -97.5q-69 -211 -349 -211h-21t-21 1q-21 17 -31.5 47.5t-10.5 62.5 q0 30 10 55.5t32 35.5zM1 -514h-4q-2 2 -2 6q0 14 24 49l76 82q0 -10 -4 -10q-6 0 -17 18.5t-21.5 41t-18 41.5t-7.5 21q0 13 6 36t20.5 45.5t37 39.5t55.5 17q13 0 31.5 -5t36 -13.5t30 -19t12.5 -21.5q0 -6 -11 -6.5t-19 -0.5q-6 0 -17.5 0.5t-24.5 1.5t-25 1.5t-17 0.5 q-9 0 -21.5 -1t-23.5 -4t-19 -7.5t-8 -11.5q0 -15 11 -33t27 -33.5t33.5 -26t30.5 -10.5q41 0 158 56l5 -2v-2q0 -3 -4 -14.5t-8.5 -24t-9 -23.5t-5.5 -12q-31 -14 -76.5 -35.5t-105.5 -50.5q-29 -22 -60 -44.5t-65 -45.5z" />
<glyph unicode="&#x621;" horiz-adv-x="958" arabic-form="isolated" d="M872.127 409.973q3.90137 -10.3916 3.90137 -22.0811q0 -40.2656 -42.916 -107.809q-20.8076 -33.7705 -218.479 -149.372q-26.0098 -15.5859 -41.6152 -24.0293q-15.6064 -8.44238 -28.6113 -15.5869q-13.0039 -7.14355 -26.0088 -14.9365 q-13.0049 -7.79395 -33.1621 -19.4834q-20.1582 -11.6904 -51.3691 -30.5244q-31.2119 -18.834 -79.3291 -48.708q-48.1172 -29.875 -117.043 -72.7383q-68.9248 -42.8633 -166.461 -103.911q5.20215 42.8633 9.75391 72.0889q4.55176 29.2246 11.7041 50.0068 t18.8564 36.3691q11.7051 15.5869 33.8125 31.1738l213.278 161.062q-81.9297 110.406 -81.9297 235.1q0 48.0586 18.8564 88.3242q18.8574 40.2656 52.0195 68.8408q33.1621 28.5762 78.6787 44.8115q45.5166 16.2363 100.137 16.2363q62.4229 0 114.441 -20.1328 q52.0195 -20.1328 91.0332 -65.5938q-3.90137 -33.7715 -28.6104 -33.7715q-3.90137 0 -14.3047 2.59766q-46.8174 12.9893 -101.438 12.9893q-188.569 0 -193.771 -109.106q28.6104 -122.096 122.244 -122.096q48.1182 0 188.569 61.0479q36.4131 19.4834 78.0283 38.9668 t89.7334 40.2656z" />
<glyph unicode="&#x622;" horiz-adv-x="563" arabic-form="isolated" d="M402 884q-11 -35 -51 -47q0 -21 3 -55t7.5 -74.5t10 -84t10.5 -83t8.5 -71.5t3.5 -50v-33q0 -45 -1.5 -93t-6.5 -101q-18 -100 -37 -151.5t-39 -51.5q-3 0 -4 3q6 37 6 93q0 186 -17.5 368.5t-50.5 367.5q-4 19 -4 50q0 35 4 71.5t10 66t14 48.5t16 19q17 0 32 -65 q40 -87 86 -127zM62 1120h-2q-3 3 -4.5 15.5t-3 26t-2.5 24.5t-2 13q-8 14 -29 43.5t-56 68.5q2 0 19 56q2 11 14 25q10 -9 39.5 -29t63.5 -40.5t64 -36t42 -15.5q91 0 95 2q48 8 76.5 13t36.5 7q31 7 52 14.5t37.5 18t31 25t32.5 37.5h9q2 -6 2 -8q0 -8 -3.5 -20.5 t-11 -27.5t-20.5 -32t-31 -33q-96 -85 -305 -85q-11 0 -21 1.5t-21.5 4t-26.5 5.5t-35 6q-2 0 -7.5 -12t-12 -27t-12.5 -27.5t-8 -12.5z" />
<glyph unicode="&#x622;" horiz-adv-x="484" arabic-form="final" d="M449 0q-155 2 -236.5 141.5t-100.5 417.5q-2 33 -6 117t-10 221q-2 51 -4 138t-2 214q0 10 3 25.5t8 29.5t12 24.5t16 10.5q16 0 22 -90l33 -510q9 -141 23.5 -230.5t35 -143.5t47 -82.5t58.5 -48.5q25 -16 55.5 -25t65.5 -9q4 0 7.5 0.5t7.5 0.5q35 -5 50 -29.5 t15 -55.5q0 -20 -5.5 -41t-15.5 -38t-24 -27.5t-30 -10.5h-11t-14 1zM14.4395 1454.03h-2.19824q-3.29785 3.30859 -4.94727 17.0957t-3.29785 28.6768q-1.64941 14.8906 -2.74902 27.0234q-1.09863 12.1318 -2.19824 14.3379q-8.79492 15.4414 -31.8818 47.9795 q-23.0869 32.5371 -61.5645 75.5527q2.19824 0 20.8877 61.7666q2.19922 12.1328 15.3916 27.5742q10.9932 -9.92676 43.4248 -31.9863t69.8096 -44.6699q37.3779 -22.6113 70.3594 -39.707t46.1729 -17.0957q100.043 0 104.44 2.20605q52.7695 8.82324 84.1016 14.3379 q31.3311 5.51465 40.126 7.7207q34.0811 7.7207 57.168 15.9932q23.0859 8.27246 41.2256 19.8535t34.0801 27.5742q15.9414 15.9932 35.7295 41.3613h9.89453q2.19922 -6.61816 2.19922 -8.82422q0 -8.82324 -3.84863 -22.6104q-3.84766 -13.7871 -12.0928 -30.332 q-8.24512 -16.5439 -22.5371 -35.2949q-14.291 -18.75 -34.0801 -36.3975q-105.539 -93.752 -335.307 -93.752q-12.0928 0 -23.0859 1.6543q-10.9941 1.6543 -23.6367 4.41211q-12.6426 2.75684 -29.1328 6.06641q-16.4912 3.30859 -38.4785 6.61719 q-2.19824 0 -8.24512 -13.2354q-6.0459 -13.2354 -13.1924 -29.7803q-7.14551 -16.5439 -13.7422 -30.3311q-6.5957 -13.7871 -8.79492 -13.7871z" />
<glyph unicode="&#x623;" horiz-adv-x="417" arabic-form="isolated" d="M300 884q-11 -35 -51 -47q0 -21 3 -55t7.5 -74.5t10 -84t10.5 -83t8.5 -71.5t3.5 -50v-33q0 -45 -1.5 -93t-6.5 -101q-18 -100 -37 -151.5t-39 -51.5q-3 0 -4 3q6 37 6 93q0 186 -17.5 368.5t-50.5 367.5q-4 19 -4 50q0 35 4 71.5t10 66t14 48.5t16 19q17 0 32 -65 q40 -87 86 -127zM390.164 1348.7q1.79883 -4.79492 1.79883 -10.1885q0 -18.5811 -19.7793 -49.748q-9.58984 -15.583 -100.693 -68.9268q-11.9873 -7.19238 -19.1797 -11.0879q-7.19238 -3.89648 -13.1855 -7.19238q-5.99414 -3.29688 -11.9883 -6.89258 q-5.99316 -3.59668 -15.2832 -8.99121q-9.29004 -5.39355 -23.6748 -14.085q-14.3848 -8.69043 -36.5615 -22.4766q-22.1768 -13.7852 -53.9434 -33.5645q-31.7656 -19.7783 -76.7188 -47.9492q2.39844 19.7793 4.49609 33.2656q2.09766 13.4854 5.39355 23.0752 q3.29688 9.58984 8.69141 16.7822q5.39355 7.19238 15.583 14.3848l98.2959 74.3213q-37.7598 50.9463 -37.7598 108.485q0 22.1758 8.69043 40.7568q8.69141 18.5801 23.9746 31.7666q15.2842 13.1855 36.2617 20.6777q20.9785 7.49219 46.1514 7.49219 q28.7695 0 52.7441 -9.29004t41.9561 -30.2686q-1.79883 -15.583 -13.1865 -15.583q-1.79785 0 -6.59277 1.19824q-21.5771 5.99414 -46.751 5.99414q-86.9072 0 -89.3057 -50.3467q13.1865 -56.3408 56.3408 -56.3408q22.1768 0 86.9082 28.1699 q16.7822 8.99121 35.9619 17.9814t41.3555 18.5801z" />
<glyph unicode="&#x623;" horiz-adv-x="484" arabic-form="final" d="M449 0q-155 2 -236.5 141.5t-100.5 417.5q-2 33 -6 117t-10 221q-2 51 -4 138t-2 214q0 10 3 25.5t8 29.5t12 24.5t16 10.5q16 0 22 -90l33 -510q9 -141 23.5 -230.5t35 -143.5t47 -82.5t58.5 -48.5q25 -16 55.5 -25t65.5 -9q4 0 7.5 0.5t7.5 0.5q35 -5 50 -29.5 t15 -55.5q0 -20 -5.5 -41t-15.5 -38t-24 -27.5t-30 -10.5h-11t-14 1zM394.164 1641.7q1.79883 -4.79492 1.79883 -10.1885q0 -18.5811 -19.7793 -49.748q-9.58984 -15.583 -100.693 -68.9268q-11.9873 -7.19238 -19.1797 -11.0879q-7.19238 -3.89648 -13.1855 -7.19238 q-5.99414 -3.29688 -11.9883 -6.89258q-5.99316 -3.59668 -15.2832 -8.99121q-9.29004 -5.39355 -23.6748 -14.085q-14.3848 -8.69043 -36.5615 -22.4766q-22.1768 -13.7852 -53.9434 -33.5645q-31.7656 -19.7783 -76.7188 -47.9492q2.39844 19.7793 4.49609 33.2656 q2.09766 13.4854 5.39355 23.0752q3.29688 9.58984 8.69141 16.7822q5.39355 7.19238 15.583 14.3848l98.2959 74.3213q-37.7598 50.9463 -37.7598 108.485q0 22.1758 8.69043 40.7568q8.69141 18.5801 23.9746 31.7666q15.2842 13.1855 36.2617 20.6777 q20.9785 7.49219 46.1514 7.49219q28.7695 0 52.7441 -9.29004t41.9561 -30.2686q-1.79883 -15.583 -13.1865 -15.583q-1.79785 0 -6.59277 1.19824q-21.5771 5.99414 -46.751 5.99414q-86.9072 0 -89.3057 -50.3467q13.1865 -56.3408 56.3408 -56.3408 q22.1768 0 86.9082 28.1699q16.7822 8.99121 35.9619 17.9814t41.3555 18.5801z" />
<glyph unicode="&#x624;" horiz-adv-x="576" arabic-form="isolated" d="M507 290q0 -195 -116 -335q-11 -14 -40 -26.5t-69.5 -21.5t-90 -15t-100.5 -6q-15 0 -24 0.5t-19 1.5t-24.5 2.5t-40.5 2.5l-2 9q12 18 254 122q218 93 229 164q-2 4 -4.5 9.5t-5.5 12.5l-16 7q-57 -23 -99 -23q-110 0 -110 141q0 25 5 56t13 59.5t18 50.5t21 29 q16 10 49 10q42 0 74.5 -21.5t54 -57t32.5 -80.5t11 -91zM525.873 890.027q2.09863 -5.6084 2.09863 -11.9189q0 -21.7344 -23.084 -58.1914q-11.1924 -18.2295 -117.521 -80.6279q-13.9902 -8.41406 -22.3848 -12.9707q-8.39355 -4.55762 -15.3887 -8.41309 q-6.99609 -3.85645 -13.9912 -8.06348q-6.99512 -4.20605 -17.8379 -10.5166q-10.8418 -6.30957 -27.6309 -16.4756q-16.7881 -10.166 -42.6709 -26.292q-25.8828 -16.125 -62.957 -39.2617q-37.0752 -23.1367 -89.5391 -56.0889q2.79785 23.1367 5.24609 38.9111 q2.44824 15.7754 6.2959 26.9932t10.1436 19.6309q6.29492 8.41309 18.1875 16.8262l114.722 86.9385q-44.0703 59.5938 -44.0703 126.9q0 25.9414 10.1436 47.6758q10.1426 21.7344 27.9805 37.1592q17.8379 15.4238 42.3213 24.1885q24.4834 8.76367 53.8633 8.76367 q33.5771 0 61.5586 -10.8672q27.9805 -10.8672 48.9668 -35.4062q-2.09863 -18.2285 -15.3896 -18.2285q-2.09863 0 -7.69531 1.40234q-25.1826 7.01074 -54.5625 7.01074q-101.431 0 -104.229 -58.8936q15.3896 -65.9043 65.7559 -65.9043q25.8818 0 101.431 32.9521 q19.5869 10.5166 41.9717 21.0332t48.2666 21.7344z" />
<glyph unicode="&#x624;" horiz-adv-x="559" arabic-form="final" d="M468 -1q-31 -88 -65.5 -154.5t-82.5 -111.5t-114 -67.5t-160 -22.5q-6 0 -12.5 0.5t-13.5 0.5q-5 -1 -25.5 -4t-48.5 -3q-22 0 -26 7v11q1 7 236 130q226 119 236 182l-6 9q-25 5 -60 11.5t-81 14.5q-102 30 -102 162q0 30 7.5 63t19.5 61.5t28 48.5t34 25q12 3 30 3 q48 0 84.5 -21.5t62.5 -70.5q7 -23 28 -47l6 -22q23 -2 43 -3.5t39 -1.5q8 0 16.5 0.5t16.5 1.5q22 -5 32.5 -35t10.5 -65q0 -59 -20.5 -83.5t-67.5 -24.5q-10 0 -20.5 1t-24.5 5zM507.873 740.027q2.09863 -5.6084 2.09863 -11.9189q0 -21.7344 -23.084 -58.1914 q-11.1924 -18.2295 -117.521 -80.6279q-13.9902 -8.41406 -22.3848 -12.9707q-8.39355 -4.55762 -15.3887 -8.41309q-6.99609 -3.85645 -13.9912 -8.06348q-6.99512 -4.20605 -17.8379 -10.5166q-10.8418 -6.30957 -27.6309 -16.4756q-16.7881 -10.166 -42.6709 -26.292 q-25.8828 -16.125 -62.957 -39.2617q-37.0752 -23.1367 -89.5391 -56.0889q2.79785 23.1367 5.24609 38.9111q2.44824 15.7754 6.2959 26.9932t10.1436 19.6309q6.29492 8.41309 18.1875 16.8262l114.722 86.9385q-44.0703 59.5938 -44.0703 126.9 q0 25.9414 10.1436 47.6758q10.1426 21.7344 27.9805 37.1592q17.8379 15.4238 42.3213 24.1885q24.4834 8.76367 53.8633 8.76367q33.5771 0 61.5586 -10.8672q27.9805 -10.8672 48.9668 -35.4062q-2.09863 -18.2285 -15.3896 -18.2285q-2.09863 0 -7.69531 1.40234 q-25.1826 7.01074 -54.5625 7.01074q-101.431 0 -104.229 -58.8936q15.3896 -65.9043 65.7559 -65.9043q25.8818 0 101.431 32.9521q19.5869 10.5166 41.9717 21.0332t48.2666 21.7344z" />
<glyph unicode="&#x625;" horiz-adv-x="386" arabic-form="isolated" d="M276 884q-11 -35 -51 -47q0 -21 3 -55t7.5 -74.5t10 -84t10.5 -83t8.5 -71.5t3.5 -50v-33q0 -45 -1.5 -93t-6.5 -101q-18 -100 -37 -151.5t-39 -51.5q-3 0 -4 3q6 37 6 93q0 186 -17.5 368.5t-50.5 367.5q-4 19 -4 50q0 35 4 71.5t10 66t14 48.5t16 19q17 0 32 -65 q40 -87 86 -127zM374.164 -235.084q1.79883 -4.78223 1.79883 -10.1611q0 -18.5293 -19.7793 -49.6113q-9.58984 -15.54 -100.693 -68.7373q-11.9873 -7.17188 -19.1797 -11.0576q-7.19238 -3.88477 -13.1855 -7.17285q-5.99414 -3.28711 -11.9883 -6.87305 q-5.99316 -3.58691 -15.2832 -8.96582q-9.29004 -5.37988 -23.6748 -14.0469t-36.5615 -22.4141q-22.1768 -13.748 -53.9434 -33.4727q-31.7656 -19.7246 -76.7188 -47.8174q2.39844 19.7246 4.49609 33.1738q2.09766 13.4482 5.39355 23.0117 q3.29688 9.56348 8.69141 16.7363q5.39355 7.17285 15.583 14.3457l98.2959 74.1162q-37.7598 50.8066 -37.7598 108.188q0 22.1152 8.69043 40.6445q8.69141 18.5293 23.9746 31.6787q15.2842 13.1504 36.2617 20.6211q20.9785 7.47168 46.1514 7.47168 q28.7695 0 52.7441 -9.26465t41.9561 -30.1846q-1.79883 -15.541 -13.1865 -15.541q-1.79785 0 -6.59277 1.19531q-21.5771 5.97754 -46.751 5.97754q-86.9072 0 -89.3057 -50.208q13.1865 -56.1855 56.3408 -56.1855q22.1768 0 86.9082 28.0928 q16.7822 8.96582 35.9619 17.9316t41.3555 18.5293z" />
<glyph unicode="&#x625;" horiz-adv-x="454" arabic-form="final" d="M420 0q-155 2 -236.5 141.5t-100.5 417.5q-2 33 -6 117t-10 221q-2 51 -4 138t-2 214q0 10 3 25.5t8 29.5t12 24.5t16 10.5q16 0 22 -90l33 -510q9 -141 23.5 -230.5t35 -143.5t47 -82.5t58.5 -48.5q25 -16 55.5 -25t65.5 -9q4 0 7.5 0.5t7.5 0.5q35 -5 50 -29.5 t15 -55.5q0 -20 -5.5 -41t-15.5 -38t-24 -27.5t-30 -10.5h-11t-14 1zM458.164 -137.302q1.79883 -4.79492 1.79883 -10.1885q0 -18.5811 -19.7793 -49.748q-9.58984 -15.583 -100.693 -68.9268q-11.9873 -7.19238 -19.1797 -11.0879q-7.19238 -3.89648 -13.1855 -7.19238 q-5.99414 -3.29688 -11.9883 -6.89258q-5.99316 -3.59668 -15.2832 -8.99121q-9.29004 -5.39355 -23.6748 -14.085q-14.3848 -8.69043 -36.5615 -22.4766q-22.1768 -13.7852 -53.9434 -33.5645q-31.7656 -19.7783 -76.7188 -47.9492q2.39844 19.7793 4.49609 33.2656 q2.09766 13.4854 5.39355 23.0752q3.29688 9.58984 8.69141 16.7822q5.39355 7.19238 15.583 14.3848l98.2959 74.3213q-37.7598 50.9463 -37.7598 108.485q0 22.1758 8.69043 40.7568q8.69141 18.5801 23.9746 31.7666q15.2842 13.1855 36.2617 20.6777 q20.9785 7.49219 46.1514 7.49219q28.7695 0 52.7441 -9.29004t41.9561 -30.2686q-1.79883 -15.583 -13.1865 -15.583q-1.79785 0 -6.59277 1.19824q-21.5771 5.99414 -46.751 5.99414q-86.9072 0 -89.3057 -50.3467q13.1865 -56.3408 56.3408 -56.3408 q22.1768 0 86.9082 28.1699q16.7822 8.99121 35.9619 17.9814t41.3555 18.5801z" />
<glyph unicode="&#x626;" horiz-adv-x="1117" arabic-form="isolated" d="M1047 762q0 -131 -33 -131q-12 0 -31 18q-11 9 -17.5 14.5t-11.5 7.5t-9.5 2.5t-10.5 0.5q-27 0 -67.5 -17t-81 -42t-74 -54t-45.5 -53q-10 -21 -10 -37q0 -33 61 -39q49 -5 79.5 -9t41.5 -7q27 -8 42.5 -22.5t23.5 -33t10 -39.5t2 -40q0 -192 -207 -364 q-142 -119 -287 -119q-78 0 -141 30q-211 103 -211 391q0 106 41 244q53 176 131 182q8 -5 8 -18q0 -17 -8 -40t-22 -52l-39 -78q-20 -38 -28.5 -82.5t-8.5 -95.5q0 -165 123 -232q88 -49 178 -49q129 0 325 133q66 45 66 59v9l-102 18q-41 7 -69.5 16.5t-47.5 24.5 t-27.5 37t-8.5 54q0 75 12.5 133t27.5 87q48 95 160 193q122 107 204 107q32 0 47 -24.5t15 -82.5zM731.873 1043.03q2.09863 -5.6084 2.09863 -11.9189q0 -21.7344 -23.084 -58.1914q-11.1924 -18.2295 -117.521 -80.6279q-13.9902 -8.41406 -22.3848 -12.9707 q-8.39355 -4.55762 -15.3887 -8.41309q-6.99609 -3.85645 -13.9912 -8.06348q-6.99512 -4.20605 -17.8379 -10.5166q-10.8418 -6.30957 -27.6309 -16.4756q-16.7881 -10.166 -42.6709 -26.292q-25.8828 -16.125 -62.957 -39.2617q-37.0752 -23.1367 -89.5391 -56.0889 q2.79785 23.1367 5.24609 38.9111q2.44824 15.7754 6.2959 26.9932t10.1436 19.6309q6.29492 8.41309 18.1875 16.8262l114.722 86.9385q-44.0703 59.5938 -44.0703 126.9q0 25.9414 10.1436 47.6758q10.1426 21.7344 27.9805 37.1592q17.8379 15.4238 42.3213 24.1885 q24.4834 8.76367 53.8633 8.76367q33.5771 0 61.5586 -10.8672q27.9805 -10.8672 48.9668 -35.4062q-2.09863 -18.2285 -15.3896 -18.2285q-2.09863 0 -7.69531 1.40234q-25.1826 7.01074 -54.5625 7.01074q-101.431 0 -104.229 -58.8936q15.3896 -65.9043 65.7559 -65.9043 q25.8818 0 101.431 32.9521q19.5869 10.5166 41.9717 21.0332t48.2666 21.7344z" />
<glyph unicode="&#x626;" horiz-adv-x="989" arabic-form="final" d="M722.873 529.027q2.09863 -5.6084 2.09863 -11.9189q0 -21.7344 -23.084 -58.1914q-11.1924 -18.2295 -117.521 -80.6279q-13.9902 -8.41406 -22.3848 -12.9707q-8.39355 -4.55762 -15.3887 -8.41309q-6.99609 -3.85645 -13.9912 -8.06348 q-6.99512 -4.20605 -17.8379 -10.5166q-10.8418 -6.30957 -27.6309 -16.4756q-16.7881 -10.166 -42.6709 -26.292q-25.8828 -16.125 -62.957 -39.2617q-37.0752 -23.1367 -89.5391 -56.0889q2.79785 23.1367 5.24609 38.9111q2.44824 15.7754 6.2959 26.9932 t10.1436 19.6309q6.29492 8.41309 18.1875 16.8262l114.722 86.9385q-44.0703 59.5938 -44.0703 126.9q0 25.9414 10.1436 47.6758q10.1426 21.7344 27.9805 37.1592q17.8379 15.4238 42.3213 24.1885q24.4834 8.76367 53.8633 8.76367q33.5771 0 61.5586 -10.8672 q27.9805 -10.8672 48.9668 -35.4062q-2.09863 -18.2285 -15.3896 -18.2285q-2.09863 0 -7.69531 1.40234q-25.1826 7.01074 -54.5625 7.01074q-101.431 0 -104.229 -58.8936q15.3896 -65.9043 65.7559 -65.9043q25.8818 0 101.431 32.9521q19.5869 10.5166 41.9717 21.0332 t48.2666 21.7344zM926 -5q-30 -2 -66.5 -8.5t-68 -15t-52.5 -18.5t-21 -19q0 -10 64 -10h15q91 0 117 -45q4 -5 4 -82q0 -180 -149 -341q-150 -163 -330 -163q-161 0 -281 162q-23 31 -37.5 59.5t-23 57.5t-11.5 58.5t-3 61.5q0 121 31 221.5t95 181.5q22 28 33 28q7 0 7 -6 q0 -21 -68 -148q-41 -75 -41 -157q0 -64 25 -123t67.5 -104t99.5 -72t121 -27q169 0 338 145q58 50 58 71q0 8 -22 13t-50.5 8.5t-54.5 6.5t-35 6q-23 9 -35 24t-13 41q-2 52 -3 76q-1 15 -2 25q-1 0 -1 -5q2 54 34 108.5t81 98.5t108.5 71.5t116.5 27.5q13 0 22.5 -8.5 t15 -22.5t8 -32t2.5 -37q0 -34 -8 -64t-23 -39q-11 -1 -26.5 -2t-37.5 -3z" />
<glyph unicode="&#x626;" horiz-adv-x="459" arabic-form="initial" d="M16 200q8 -1 16.5 -1h16.5q155 0 312 77q1 2 1 8q0 9 -7 33t-15 51.5t-15 54.5t-7 42q0 19 9 56t35 103l8 -1q3 -10 8 -24q4 -12 10.5 -30.5t14.5 -42.5q20 -59 20 -130q0 -42 -7.5 -88.5t-24.5 -97.5q-69 -211 -349 -211h-21t-21 1q-21 17 -31.5 47.5t-10.5 62.5 q0 30 10 55.5t32 35.5zM409.873 893.027q2.09863 -5.6084 2.09863 -11.9189q0 -21.7344 -23.084 -58.1914q-11.1924 -18.2295 -117.521 -80.6279q-13.9902 -8.41406 -22.3848 -12.9707q-8.39355 -4.55762 -15.3887 -8.41309q-6.99609 -3.85645 -13.9912 -8.06348 q-6.99512 -4.20605 -17.8379 -10.5166q-10.8418 -6.30957 -27.6309 -16.4756q-16.7881 -10.166 -42.6709 -26.292q-25.8828 -16.125 -62.957 -39.2617q-37.0752 -23.1367 -89.5391 -56.0889q2.79785 23.1367 5.24609 38.9111q2.44824 15.7754 6.2959 26.9932 t10.1436 19.6309q6.29492 8.41309 18.1875 16.8262l114.722 86.9385q-44.0703 59.5938 -44.0703 126.9q0 25.9414 10.1436 47.6758q10.1426 21.7344 27.9805 37.1592q17.8379 15.4238 42.3213 24.1885q24.4834 8.76367 53.8633 8.76367q33.5771 0 61.5586 -10.8672 q27.9805 -10.8672 48.9668 -35.4062q-2.09863 -18.2285 -15.3896 -18.2285q-2.09863 0 -7.69531 1.40234q-25.1826 7.01074 -54.5625 7.01074q-101.431 0 -104.229 -58.8936q15.3896 -65.9043 65.7559 -65.9043q25.8818 0 101.431 32.9521q19.5869 10.5166 41.9717 21.0332 t48.2666 21.7344z" />
<glyph unicode="&#x626;" horiz-adv-x="712" arabic-form="medial" d="M447 59q-84 46 -100 85q-56 -42 -124.5 -75.5t-140.5 -57.5q-6 -2 -23 -5.5t-60 -5.5q-6 1 -12.5 12t-11.5 27t-8.5 35.5t-3.5 39.5q0 28 8 52t28 35q242 15 311 113q52 74 57 74q6 -14 9 -49q15 -27 39.5 -48.5t63.5 -38.5t96 -29.5t137 -21.5q14 -6 22.5 -36t8.5 -65 q0 -32 -7.5 -60.5t-23.5 -39.5q-43 0 -108 10.5t-142 41.5zM535.873 818.027q2.09863 -5.6084 2.09863 -11.9189q0 -21.7344 -23.084 -58.1914q-11.1924 -18.2295 -117.521 -80.6279q-13.9902 -8.41406 -22.3848 -12.9707q-8.39355 -4.55762 -15.3887 -8.41309 q-6.99609 -3.85645 -13.9912 -8.06348q-6.99512 -4.20605 -17.8379 -10.5166q-10.8418 -6.30957 -27.6309 -16.4756q-16.7881 -10.166 -42.6709 -26.292q-25.8828 -16.125 -62.957 -39.2617q-37.0752 -23.1367 -89.5391 -56.0889q2.79785 23.1367 5.24609 38.9111 q2.44824 15.7754 6.2959 26.9932t10.1436 19.6309q6.29492 8.41309 18.1875 16.8262l114.722 86.9385q-44.0703 59.5938 -44.0703 126.9q0 25.9414 10.1436 47.6758q10.1426 21.7344 27.9805 37.1592q17.8379 15.4238 42.3213 24.1885q24.4834 8.76367 53.8633 8.76367 q33.5771 0 61.5586 -10.8672q27.9805 -10.8672 48.9668 -35.4062q-2.09863 -18.2285 -15.3896 -18.2285q-2.09863 0 -7.69531 1.40234q-25.1826 7.01074 -54.5625 7.01074q-101.431 0 -104.229 -58.8936q15.3896 -65.9043 65.7559 -65.9043q25.8818 0 101.431 32.9521 q19.5869 10.5166 41.9717 21.0332t48.2666 21.7344z" />
<glyph unicode="&#x627;" horiz-adv-x="386" arabic-form="isolated" d="M276 884q-11 -35 -51 -47q0 -21 3 -55t7.5 -74.5t10 -84t10.5 -83t8.5 -71.5t3.5 -50v-33q0 -45 -1.5 -93t-6.5 -101q-18 -100 -37 -151.5t-39 -51.5q-3 0 -4 3q6 37 6 93q0 186 -17.5 368.5t-50.5 367.5q-4 19 -4 50q0 35 4 71.5t10 66t14 48.5t16 19q17 0 32 -65 q40 -87 86 -127z" />
<glyph unicode="&#x627;" horiz-adv-x="484" arabic-form="final" d="M449 0q-155 2 -236.5 141.5t-100.5 417.5q-2 33 -6 117t-10 221q-2 51 -4 138t-2 214q0 10 3 25.5t8 29.5t12 24.5t16 10.5q16 0 22 -90l33 -510q9 -141 23.5 -230.5t35 -143.5t47 -82.5t58.5 -48.5q25 -16 55.5 -25t65.5 -9q4 0 7.5 0.5t7.5 0.5q35 -5 50 -29.5 t15 -55.5q0 -20 -5.5 -41t-15.5 -38t-24 -27.5t-30 -10.5h-11t-14 1z" />
<glyph unicode="&#x628;" horiz-adv-x="1248" arabic-form="isolated" d="M1178 408q0 -35 -8 -77t-20 -80.5t-26 -67t-26 -36.5q-34 -28 -84.5 -53t-113.5 -44t-135.5 -30.5t-150.5 -11.5q-48 0 -97.5 7.5t-98.5 15.5q-80 12 -144 44t-109 84t-69 123t-24 160q0 18 5.5 46t13.5 56t17 49.5t17 27.5h13q6 -3 6 -21q0 -85 -19 -139v-8 q0 -162 295 -232q68 -17 128 -24t114 -7q148 0 263 35.5t192 102.5l4 10q-35 63 -72 170q0 2 -0.5 5t-0.5 7q0 18 2 43.5t4.5 48t5 38.5t4.5 16q8 0 32 -33q82 -116 82 -225zM525 -229l147 147l148 -147l-148 -148z" />
<glyph unicode="&#x628;" horiz-adv-x="1260" arabic-form="final" d="M400 -255l147 147l148 -147l-148 -148zM1145 42q-60 42 -80 112q-40 -43 -94.5 -74.5t-120.5 -52.5t-141 -31t-156 -10q-112 0 -201.5 18t-152 58t-96 103t-33.5 153q0 21 5 54t13 65t18 56t19 28l23 -5q4 -4 4 -10q0 -8 -5 -24t-10.5 -33t-10.5 -32.5t-5 -21.5 q0 -47 33.5 -86.5t91.5 -68t136 -44t167 -15.5q284 0 478 106q16 9 29 24t21 29t12.5 24t4.5 9l10 2q8 -3 13 -18.5t8 -32.5t4 -31.5t2 -15.5q20 -36 53 -56t77 -20q12 0 21.5 -9.5t16 -24.5t10 -34.5t3.5 -38.5q0 -36 -12.5 -65t-38.5 -29q-31 0 -60 11t-56 31z" />
<glyph unicode="&#x628;" horiz-adv-x="460" arabic-form="initial" d="M16 200q8 -1 16.5 -1h16.5q155 0 312 77q1 2 1 8q0 9 -7 33t-15 51.5t-15 54.5t-7 42q0 19 9 56t35 103l8 -1q3 -10 8 -24q4 -12 10.5 -30.5t14.5 -42.5q20 -59 20 -130q0 -42 -7.5 -88.5t-24.5 -97.5q-69 -211 -349 -211h-21t-21 1q-21 17 -31.5 47.5t-10.5 62.5 q0 30 10 55.5t32 35.5zM44 -230l147 147l148 -147l-148 -148z" />
<glyph unicode="&#x628;" horiz-adv-x="712" arabic-form="medial" d="M447 59q-84 46 -100 85q-56 -42 -124.5 -75.5t-140.5 -57.5q-6 -2 -23 -5.5t-60 -5.5q-6 1 -12.5 12t-11.5 27t-8.5 35.5t-3.5 39.5q0 28 8 52t28 35q242 15 311 113q52 74 57 74q6 -14 9 -49q15 -27 39.5 -48.5t63.5 -38.5t96 -29.5t137 -21.5q14 -6 22.5 -36t8.5 -65 q0 -32 -7.5 -60.5t-23.5 -39.5q-43 0 -108 10.5t-142 41.5zM178 -231l147 147l148 -147l-148 -148z" />
<glyph unicode="&#x629;" horiz-adv-x="634" arabic-form="isolated" d="M564 776q-2 -21 -11.5 -39t-29.5 -40t-53.5 -52.5t-84.5 -77.5v-16q109 -96 109 -242q0 -27 -4 -58t-12.5 -64t-22.5 -67t-35 -65q-61 -55 -147 -55q-38 0 -74 12t-64.5 34t-45.5 53.5t-17 70.5q0 78 51 192l49 111q-23 17 -42.5 33.5t-36.5 32.5q-11 10 -17 31.5 t-6 58.5q0 22 2 47.5t6 54.5l15 12q14 0 117 -66q97 -63 112 -63q11 0 60.5 41t125.5 105q37 31 45 31q4 0 6 -3zM424 248q-4 11 -16 29t-29 37.5t-37.5 39.5t-40 37t-37.5 28t-30 13q-15 -2 -30 -20t-27 -40.5t-19.5 -43.5t-7.5 -28q0 -10 10 -26q43 -69 139 -69 q64 0 119 28zM594 996l-147 -150l-138 131l-127 -129l-145 146l145 149l134 -133l131 131z" />
<glyph unicode="&#x629;" horiz-adv-x="778" arabic-form="final" d="M627 72q-22 22 -41 47.5t-33.5 48t-23.5 37.5t-10 17q-10 -31 -41 -90q-9 -12 -35.5 -22t-61 -18t-73 -12.5t-72.5 -4.5q-165 0 -166 78q0 4 10 36.5t33 94.5q36 102 143 180q45 33 207 117q15 13 29 145q4 48 13 48t15.5 -34.5t8.5 -91.5q1 -46 11.5 -97t28 -100.5 t40.5 -95t50.5 -79.5t58 -54.5t61.5 -20.5q19 -14 26 -39t7 -53q0 -19 -3 -38t-7.5 -34t-10.5 -25t-12 -12q-94 12 -152 72zM504 320q-5 46 -10.5 90t-11.5 89q-12 -10 -39.5 -28t-61 -39.5t-69.5 -45t-66 -43.5t-49 -35t-19 -20q0 -11 26 -17t61 -6q39 0 80.5 5t76 13.5 t57.5 18t25 18.5zM669 986l-147 -150l-138 131l-127 -129l-145 146l145 149l134 -133l131 131z" />
<glyph unicode="&#x62a;" horiz-adv-x="1248" arabic-form="isolated" d="M871 803l-147 -150l-138 131l-127 -129l-145 146l145 149l134 -133l131 131zM1178 408q0 -35 -8 -77t-20 -80.5t-26 -67t-26 -36.5q-34 -28 -84.5 -53t-113.5 -44t-135.5 -30.5t-150.5 -11.5q-48 0 -97.5 7.5t-98.5 15.5q-80 12 -144 44t-109 84t-69 123t-24 160 q0 18 5.5 46t13.5 56t17 49.5t17 27.5h13q6 -3 6 -21q0 -85 -19 -139v-8q0 -162 295 -232q68 -17 128 -24t114 -7q148 0 263 35.5t192 102.5l4 10q-35 63 -72 170q0 2 -0.5 5t-0.5 7q0 18 2 43.5t4.5 48t5 38.5t4.5 16q8 0 32 -33q82 -116 82 -225z" />
<glyph unicode="&#x62a;" horiz-adv-x="1260" arabic-form="final" d="M918 637l-147 -150l-138 131l-127 -129l-145 146l145 149l134 -133l131 131zM1145 42q-60 42 -80 112q-40 -43 -94.5 -74.5t-120.5 -52.5t-141 -31t-156 -10q-112 0 -201.5 18t-152 58t-96 103t-33.5 153q0 21 5 54t13 65t18 56t19 28l23 -5q4 -4 4 -10q0 -8 -5 -24 t-10.5 -33t-10.5 -32.5t-5 -21.5q0 -47 33.5 -86.5t91.5 -68t136 -44t167 -15.5q284 0 478 106q16 9 29 24t21 29t12.5 24t4.5 9l10 2q8 -3 13 -18.5t8 -32.5t4 -31.5t2 -15.5q20 -36 53 -56t77 -20q12 0 21.5 -9.5t16 -24.5t10 -34.5t3.5 -38.5q0 -36 -12.5 -65t-38.5 -29 q-31 0 -60 11t-56 31z" />
<glyph unicode="&#x62a;" horiz-adv-x="537" arabic-form="initial" d="M16 200q8 -1 16.5 -1h16.5q155 0 312 77q1 2 1 8q0 9 -7 33t-15 51.5t-15 54.5t-7 42q0 19 9 56t35 103l8 -1q3 -10 8 -24q4 -12 10.5 -30.5t14.5 -42.5q20 -59 20 -130q0 -42 -7.5 -88.5t-24.5 -97.5q-69 -211 -349 -211h-21t-21 1q-21 17 -31.5 47.5t-10.5 62.5 q0 30 10 55.5t32 35.5zM486 905l-147 -150l-138 131l-127 -129l-145 146l145 149l134 -133l131 131z" />
<glyph unicode="&#x62a;" horiz-adv-x="712" arabic-form="medial" d="M447 59q-84 46 -100 85q-56 -42 -124.5 -75.5t-140.5 -57.5q-6 -2 -23 -5.5t-60 -5.5q-6 1 -12.5 12t-11.5 27t-8.5 35.5t-3.5 39.5q0 28 8 52t28 35q242 15 311 113q52 74 57 74q6 -14 9 -49q15 -27 39.5 -48.5t63.5 -38.5t96 -29.5t137 -21.5q14 -6 22.5 -36t8.5 -65 q0 -32 -7.5 -60.5t-23.5 -39.5q-43 0 -108 10.5t-142 41.5zM622 679l-147 -150l-138 131l-127 -129l-145 146l145 149l134 -133l131 131z" />
<glyph unicode="&#x62b;" horiz-adv-x="1220" arabic-form="isolated" d="M867 800l-148 -148l-131 131l-133 -131l-147 148l147 147l133 -133l131 133zM727 1029l-147 -147l-148 147l148 148zM1168 408q0 -35 -8 -77t-20 -80.5t-26 -67t-26 -36.5q-34 -28 -84.5 -53t-113.5 -44t-135.5 -30.5t-150.5 -11.5q-48 0 -97.5 7.5t-98.5 15.5 q-80 12 -144 44t-109 84t-69 123t-24 160q0 18 5.5 46t13.5 56t17 49.5t17 27.5h13q6 -3 6 -21q0 -85 -19 -139v-8q0 -162 295 -232q68 -17 128 -24t114 -7q148 0 263 35.5t192 102.5l4 10q-35 63 -72 170q0 2 -0.5 5t-0.5 7q0 18 2 43.5t4.5 48t5 38.5t4.5 16q8 0 32 -33 q82 -116 82 -225z" />
<glyph unicode="&#x62b;" horiz-adv-x="1260" arabic-form="final" d="M916 629l-148 -148l-131 131l-133 -131l-147 148l147 147l133 -133l131 133zM776 858l-147 -147l-148 147l148 148zM1145 42q-60 42 -80 112q-40 -43 -94.5 -74.5t-120.5 -52.5t-141 -31t-156 -10q-112 0 -201.5 18t-152 58t-96 103t-33.5 153q0 21 5 54t13 65t18 56 t19 28l23 -5q4 -4 4 -10q0 -8 -5 -24t-10.5 -33t-10.5 -32.5t-5 -21.5q0 -47 33.5 -86.5t91.5 -68t136 -44t167 -15.5q284 0 478 106q16 9 29 24t21 29t12.5 24t4.5 9l10 2q8 -3 13 -18.5t8 -32.5t4 -31.5t2 -15.5q20 -36 53 -56t77 -20q12 0 21.5 -9.5t16 -24.5t10 -34.5 t3.5 -38.5q0 -36 -12.5 -65t-38.5 -29q-31 0 -60 11t-56 31z" />
<glyph unicode="&#x62b;" horiz-adv-x="538" arabic-form="initial" d="M16 200q8 -1 16.5 -1h16.5q155 0 312 77q1 2 1 8q0 9 -7 33t-15 51.5t-15 54.5t-7 42q0 19 9 56t35 103l8 -1q3 -10 8 -24q4 -12 10.5 -30.5t14.5 -42.5q20 -59 20 -130q0 -42 -7.5 -88.5t-24.5 -97.5q-69 -211 -349 -211h-21t-21 1q-21 17 -31.5 47.5t-10.5 62.5 q0 30 10 55.5t32 35.5zM485 908l-148 -148l-131 131l-133 -131l-147 148l147 147l133 -133l131 133zM345 1137l-147 -147l-148 147l148 148z" />
<glyph unicode="&#x62b;" horiz-adv-x="712" arabic-form="medial" d="M447 59q-84 46 -100 85q-56 -42 -124.5 -75.5t-140.5 -57.5q-6 -2 -23 -5.5t-60 -5.5q-6 1 -12.5 12t-11.5 27t-8.5 35.5t-3.5 39.5q0 28 8 52t28 35q242 15 311 113q52 74 57 74q6 -14 9 -49q15 -27 39.5 -48.5t63.5 -38.5t96 -29.5t137 -21.5q14 -6 22.5 -36t8.5 -65 q0 -32 -7.5 -60.5t-23.5 -39.5q-43 0 -108 10.5t-142 41.5zM618 839l-148 -148l-131 131l-133 -131l-147 148l147 147l133 -133l131 133zM478 1068l-147 -147l-148 147l148 148z" />
<glyph unicode="&#x62c;" horiz-adv-x="819" arabic-form="isolated" d="M795 653q1 -2 1 -6q0 -7 -5 -20q-21 -67 -62 -154q-69 -20 -149 -48t-178 -63q-66 -22 -119.5 -69.5t-91.5 -112.5t-59 -143t-21 -161v-18q0 -44 -8 -44q-4 0 -9.5 8t-10 19.5t-8 23t-3.5 17.5q0 15 -1 30t-1 31q0 340 283 493q4 5 4 10q0 4 -3 8.5t-15 7.5t-36 5t-65 2 q-69 0 -94 -31q-26 -33 -41 -50t-19 -19q-4 0 -4 8q0 1 0.5 3.5t2.5 11.5t6 28t12 53q12 52 28.5 88t42.5 58t63 31.5t89 9.5q61 0 121 -3.5t117 -3.5q54 0 104.5 3.5t100.5 3.5q23 0 28 -7zM331 91l147 147l148 -147l-148 -148z" />
<glyph unicode="&#x62c;" horiz-adv-x="986" arabic-form="final" d="M335 -38l147 147l148 -147l-148 -148zM734 152q-94 134 -94 329q0 22 1 43.5t3 44.5q-17 -14 -53.5 -36.5t-77.5 -46.5t-77.5 -46t-53.5 -35q-20 -20 -48.5 -49t-64.5 -69q-63 -69 -94 -146.5t-31 -160.5t49 -217q19 -50 19 -90q0 -21 -9 -21q-12 0 -45 49 q-88 133 -88 289q0 305 211 516q26 20 53.5 41.5t57.5 44.5q0 16 -107 16q-128 0 -147 -18q-14 -26 -45 -66h-8q-3 6 -3 17q0 38 35 143q39 114 146 119q57 -4 143 -7.5t203 -5.5l215 7h3q3 0 7 -1q8 -2 8 -5q0 -4 -4 -18t-10.5 -33t-14 -40.5t-15 -40t-13.5 -31t-8 -13.5 q-5 -2 -21.5 -5.5t-44.5 -7.5q-39 -6 -39 -98q0 -36 20.5 -76.5t49.5 -77t60 -65.5t52 -42q58 -38 132 -42q11 0 19 -8.5t13.5 -22.5t8 -32t2.5 -36q0 -42 -11.5 -72t-34.5 -30q-148 0 -249 152z" />
<glyph unicode="&#x62c;" horiz-adv-x="833" arabic-form="initial" d="M201 -274l147 147l148 -147l-148 -148zM85 199q32 0 54.5 0.5t42 3t39.5 7.5t49 14t69.5 23t101.5 34l5 12q-11 14 -41 30.5t-66.5 30.5t-74 23.5t-64.5 9.5q-48 0 -70 -22q-49 -76 -70 -76q-10 0 -10 16q0 13 31 82q47 107 149 107q72 0 216 -66q83 -38 160 -59.5 t149 -26.5l8 -10q0 -6 -7.5 -31.5t-17.5 -53.5t-20 -51.5t-14 -25.5q-4 -3 -20.5 -7t-39 -9.5t-48 -11t-46.5 -9.5t-35 -7l-14 -3q-108 -36 -190.5 -60t-142.5 -38t-99 -19.5t-61 -5.5q-9 0 -17 12.5t-14 30t-9.5 34.5t-3.5 26q0 22 8 47t28 54z" />
<glyph unicode="&#x62c;" horiz-adv-x="862" arabic-form="medial" d="M174 -274l147 147l148 -147l-148 -148zM862 0h-10q-13 0 -36.5 2t-52 6.5t-59.5 12t-58 18.5q-65 26 -98 135l-7 4h-3q-28 0 -267 -106q-163 -63 -272 -72q-11 23 -19.5 45t-8.5 51q0 21 6 47t23 58q141 18 380 110q-18 15 -51.5 29.5t-70 25.5t-70.5 18t-54 7 q-21 0 -41 -13.5t-36.5 -30t-28 -30.5t-15.5 -14l-6 4q-2 8 -2 15q0 25 39 96q47 86 143 86q64 0 210 -57q72 -29 121.5 -42.5t76.5 -13.5h-1q0 -2 21.5 2t63.5 4q11 0 11.5 -5.5t0.5 -12.5q0 -21 -9.5 -53t-26.5 -76q-11 -10 -43 -28q105 -21 221 -21h29q11 -19 22.5 -40 t11.5 -53q0 -21 -7.5 -47t-26.5 -61z" />
<glyph unicode="&#x62d;" horiz-adv-x="819" arabic-form="isolated" d="M795 653q1 -2 1 -6q0 -7 -5 -20q-21 -67 -62 -154q-69 -20 -149 -48t-178 -63q-66 -22 -119.5 -69.5t-91.5 -112.5t-59 -143t-21 -161v-18q0 -44 -8 -44q-4 0 -9.5 8t-10 19.5t-8 23t-3.5 17.5q0 15 -1 30t-1 31q0 340 283 493q4 5 4 10q0 4 -3 8.5t-15 7.5t-36 5t-65 2 q-69 0 -94 -31q-26 -33 -41 -50t-19 -19q-4 0 -4 8q0 1 0.5 3.5t2.5 11.5t6 28t12 53q12 52 28.5 88t42.5 58t63 31.5t89 9.5q61 0 121 -3.5t117 -3.5q54 0 104.5 3.5t100.5 3.5q23 0 28 -7z" />
<glyph unicode="&#x62d;" horiz-adv-x="986" arabic-form="final" d="M734 152q-94 134 -94 329q0 22 1 43.5t3 44.5q-17 -14 -53.5 -36.5t-77.5 -46.5t-77.5 -46t-53.5 -35q-20 -20 -48.5 -49t-64.5 -69q-63 -69 -94 -146.5t-31 -160.5t49 -217q19 -50 19 -90q0 -21 -9 -21q-12 0 -45 49q-88 133 -88 289q0 305 211 516q26 20 53.5 41.5 t57.5 44.5q0 16 -107 16q-128 0 -147 -18q-14 -26 -45 -66h-8q-3 6 -3 17q0 38 35 143q39 114 146 119q57 -4 143 -7.5t203 -5.5l215 7h3q3 0 7 -1q8 -2 8 -5q0 -4 -4 -18t-10.5 -33t-14 -40.5t-15 -40t-13.5 -31t-8 -13.5q-5 -2 -21.5 -5.5t-44.5 -7.5q-39 -6 -39 -98 q0 -36 20.5 -76.5t49.5 -77t60 -65.5t52 -42q58 -38 132 -42q11 0 19 -8.5t13.5 -22.5t8 -32t2.5 -36q0 -42 -11.5 -72t-34.5 -30q-148 0 -249 152z" />
<glyph unicode="&#x62d;" horiz-adv-x="833" arabic-form="initial" d="M85 199q32 0 54.5 0.5t42 3t39.5 7.5t49 14t69.5 23t101.5 34l5 12q-11 14 -41 30.5t-66.5 30.5t-74 23.5t-64.5 9.5q-48 0 -70 -22q-49 -76 -70 -76q-10 0 -10 16q0 13 31 82q47 107 149 107q72 0 216 -66q83 -38 160 -59.5t149 -26.5l8 -10q0 -6 -7.5 -31.5 t-17.5 -53.5t-20 -51.5t-14 -25.5q-4 -3 -20.5 -7t-39 -9.5t-48 -11t-46.5 -9.5t-35 -7l-14 -3q-108 -36 -190.5 -60t-142.5 -38t-99 -19.5t-61 -5.5q-9 0 -17 12.5t-14 30t-9.5 34.5t-3.5 26q0 22 8 47t28 54z" />
<glyph unicode="&#x62d;" horiz-adv-x="862" arabic-form="medial" d="M862 0h-10q-13 0 -36.5 2t-52 6.5t-59.5 12t-58 18.5q-65 26 -98 135l-7 4h-3q-28 0 -267 -106q-163 -63 -272 -72q-11 23 -19.5 45t-8.5 51q0 21 6 47t23 58q141 18 380 110q-18 15 -51.5 29.5t-70 25.5t-70.5 18t-54 7q-21 0 -41 -13.5t-36.5 -30t-28 -30.5t-15.5 -14 l-6 4q-2 8 -2 15q0 25 39 96q47 86 143 86q64 0 210 -57q72 -29 121.5 -42.5t76.5 -13.5h-1q0 -2 21.5 2t63.5 4q11 0 11.5 -5.5t0.5 -12.5q0 -21 -9.5 -53t-26.5 -76q-11 -10 -43 -28q105 -21 221 -21h29q11 -19 22.5 -40t11.5 -53q0 -21 -7.5 -47t-26.5 -61z" />
<glyph unicode="&#x62e;" horiz-adv-x="819" arabic-form="isolated" d="M795 653q1 -2 1 -6q0 -7 -5 -20q-21 -67 -62 -154q-69 -20 -149 -48t-178 -63q-66 -22 -119.5 -69.5t-91.5 -112.5t-59 -143t-21 -161v-18q0 -44 -8 -44q-4 0 -9.5 8t-10 19.5t-8 23t-3.5 17.5q0 15 -1 30t-1 31q0 340 283 493q4 5 4 10q0 4 -3 8.5t-15 7.5t-36 5t-65 2 q-69 0 -94 -31q-26 -33 -41 -50t-19 -19q-4 0 -4 8q0 1 0.5 3.5t2.5 11.5t6 28t12 53q12 52 28.5 88t42.5 58t63 31.5t89 9.5q61 0 121 -3.5t117 -3.5q54 0 104.5 3.5t100.5 3.5q23 0 28 -7zM291 975l147 147l148 -147l-148 -148z" />
<glyph unicode="&#x62e;" horiz-adv-x="986" arabic-form="final" d="M734 152q-94 134 -94 329q0 22 1 43.5t3 44.5q-17 -14 -53.5 -36.5t-77.5 -46.5t-77.5 -46t-53.5 -35q-20 -20 -48.5 -49t-64.5 -69q-63 -69 -94 -146.5t-31 -160.5t49 -217q19 -50 19 -90q0 -21 -9 -21q-12 0 -45 49q-88 133 -88 289q0 305 211 516q26 20 53.5 41.5 t57.5 44.5q0 16 -107 16q-128 0 -147 -18q-14 -26 -45 -66h-8q-3 6 -3 17q0 38 35 143q39 114 146 119q57 -4 143 -7.5t203 -5.5l215 7h3q3 0 7 -1q8 -2 8 -5q0 -4 -4 -18t-10.5 -33t-14 -40.5t-15 -40t-13.5 -31t-8 -13.5q-5 -2 -21.5 -5.5t-44.5 -7.5q-39 -6 -39 -98 q0 -36 20.5 -76.5t49.5 -77t60 -65.5t52 -42q58 -38 132 -42q11 0 19 -8.5t13.5 -22.5t8 -32t2.5 -36q0 -42 -11.5 -72t-34.5 -30q-148 0 -249 152zM315 1086l147 147l148 -147l-148 -148z" />
<glyph unicode="&#x62e;" horiz-adv-x="833" arabic-form="initial" d="M85 199q32 0 54.5 0.5t42 3t39.5 7.5t49 14t69.5 23t101.5 34l5 12q-11 14 -41 30.5t-66.5 30.5t-74 23.5t-64.5 9.5q-48 0 -70 -22q-49 -76 -70 -76q-10 0 -10 16q0 13 31 82q47 107 149 107q72 0 216 -66q83 -38 160 -59.5t149 -26.5l8 -10q0 -6 -7.5 -31.5 t-17.5 -53.5t-20 -51.5t-14 -25.5q-4 -3 -20.5 -7t-39 -9.5t-48 -11t-46.5 -9.5t-35 -7l-14 -3q-108 -36 -190.5 -60t-142.5 -38t-99 -19.5t-61 -5.5q-9 0 -17 12.5t-14 30t-9.5 34.5t-3.5 26q0 22 8 47t28 54zM227 908l147 147l148 -147l-148 -148z" />
<glyph unicode="&#x62e;" horiz-adv-x="862" arabic-form="medial" d="M862 0h-10q-13 0 -36.5 2t-52 6.5t-59.5 12t-58 18.5q-65 26 -98 135l-7 4h-3q-28 0 -267 -106q-163 -63 -272 -72q-11 23 -19.5 45t-8.5 51q0 21 6 47t23 58q141 18 380 110q-18 15 -51.5 29.5t-70 25.5t-70.5 18t-54 7q-21 0 -41 -13.5t-36.5 -30t-28 -30.5t-15.5 -14 l-6 4q-2 8 -2 15q0 25 39 96q47 86 143 86q64 0 210 -57q72 -29 121.5 -42.5t76.5 -13.5h-1q0 -2 21.5 2t63.5 4q11 0 11.5 -5.5t0.5 -12.5q0 -21 -9.5 -53t-26.5 -76q-11 -10 -43 -28q105 -21 221 -21h29q11 -19 22.5 -40t11.5 -53q0 -21 -7.5 -47t-26.5 -61zM210 908 l147 147l148 -147l-148 -148z" />
<glyph unicode="&#x62f;" horiz-adv-x="666" arabic-form="isolated" d="M586 227q-11 -152 -43 -180q-71 -63 -256 -90l-184 -26q-2 0 -3 -0.5t-2 -0.5q-28 0 -28 44q0 9 3.5 27t8 38t8 38t3.5 27l12 13q186 32 287.5 53.5t117.5 38.5v10q-13 20 -56.5 42t-115.5 50l-143 54q-2 1 -6 69q-2 16 -2 30v26q0 36 6 53l8 4h10q26 0 69 -12.5t89 -32 t88 -42t66 -42.5q64 -54 64 -160v-15.5t-1 -15.5z" />
<glyph unicode="&#x62f;" horiz-adv-x="958" arabic-form="final" d="M958 0q-49 8 -91 28q-41 20 -74 40t-62.5 44.5t-57 55t-56.5 72.5q-24 -71 -42 -126.5t-34.5 -98t-34 -72t-39.5 -48t-51.5 -27t-69.5 -8.5q-41 0 -75 20.5t-61.5 51t-47 66t-30.5 65.5q-5 13 -15 55.5t-20.5 98.5t-18.5 116t-8 107q0 21 2 35.5t4 36.5l4 4q3 -2 3 -4 q47 -226 63 -272q67 -187 193 -187q52 0 94.5 22.5t71.5 57.5t45 77t16 81q-3 0 -102 280q-3 37 -3 73q0 16 1 36.5t2.5 39t4.5 31t6 12.5q4 0 6.5 -6.5t3.5 -11.5q98 -290 230 -427q43 -33 78 -54t63.5 -33.5t53 -19t48.5 -10.5q9 0 17.5 -10t15 -26.5t11 -37t4.5 -41.5 q0 -29 -11 -53.5t-37 -32.5z" />
<glyph unicode="&#x630;" horiz-adv-x="666" arabic-form="isolated" d="M178 816l147 147l148 -147l-148 -148zM586 227q-11 -152 -43 -180q-71 -63 -256 -90l-184 -26q-2 0 -3 -0.5t-2 -0.5q-28 0 -28 44q0 9 3.5 27t8 38t8 38t3.5 27l12 13q186 32 287.5 53.5t117.5 38.5v10q-13 20 -56.5 42t-115.5 50l-143 54q-2 1 -6 69q-2 16 -2 30v26 q0 36 6 53l8 4h10q26 0 69 -12.5t89 -32t88 -42t66 -42.5q64 -54 64 -160v-15.5t-1 -15.5z" />
<glyph unicode="&#x630;" horiz-adv-x="958" arabic-form="final" d="M958 0q-49 8 -91 28q-41 20 -74 40t-62.5 44.5t-57 55t-56.5 72.5q-24 -71 -42 -126.5t-34.5 -98t-34 -72t-39.5 -48t-51.5 -27t-69.5 -8.5q-41 0 -75 20.5t-61.5 51t-47 66t-30.5 65.5q-5 13 -15 55.5t-20.5 98.5t-18.5 116t-8 107q0 21 2 35.5t4 36.5l4 4q3 -2 3 -4 q47 -226 63 -272q67 -187 193 -187q52 0 94.5 22.5t71.5 57.5t45 77t16 81q-3 0 -102 280q-3 37 -3 73q0 16 1 36.5t2.5 39t4.5 31t6 12.5q4 0 6.5 -6.5t3.5 -11.5q98 -290 230 -427q43 -33 78 -54t63.5 -33.5t53 -19t48.5 -10.5q9 0 17.5 -10t15 -26.5t11 -37t4.5 -41.5 q0 -29 -11 -53.5t-37 -32.5zM355 1023l147 147l148 -147l-148 -148z" />
<glyph unicode="&#x631;" horiz-adv-x="513" arabic-form="isolated" d="M443 303q0 -181 -43 -248q-66 -102 -150.5 -154t-196.5 -52q-15 0 -31.5 0.5t-35.5 1.5h-22q-17 0 -33 1t-31 3l4 16q13 8 78 44t184 101q110 60 172.5 111t62.5 89q0 21 -17.5 64t-51.5 111q-11 22 -17 61.5t-6 91.5q0 70 15 70q5 0 9.5 -9.5t12.5 -20.5 q26 -40 44.5 -74t30 -67t17 -66.5t5.5 -73.5z" />
<glyph unicode="&#x631;" horiz-adv-x="624" arabic-form="final" d="M480 55q-11 -28 -23.5 -72t-27.5 -105q-18 -75 -42 -125.5t-50 -78.5q-41 -44 -174 -44q-34 0 -73 3q-20 -1 -35.5 -1.5t-27.5 -0.5q-52 0 -96 10l-6 6q-1 3 -1 9q0 15 15 21l370 172q79 109 103 179q-40 70 -59 117.5t-19 73.5q0 8 1 12v14q0 26 2.5 62t7.5 84l23 6 q27 -59 57.5 -96t63 -58.5t66.5 -30.5t69 -11q9 -21 18.5 -43t9.5 -53q0 -20 -6 -46t-22 -59q-92 9 -144 55z" />
<glyph unicode="&#x632;" horiz-adv-x="513" arabic-form="isolated" d="M443 305q0 -181 -43 -248q-66 -102 -150.5 -154t-196.5 -52q-15 0 -31.5 0.5t-35.5 1.5h-22q-17 0 -33 1t-31 3l4 16q13 8 78 44t184 101q110 60 172.5 111t62.5 89q0 21 -17.5 64t-51.5 111q-11 22 -17 61.5t-6 91.5q0 70 15 70q5 0 9.5 -9.5t12.5 -20.5 q26 -40 44.5 -74t30 -67t17 -66.5t5.5 -73.5zM163 911l147 147l148 -147l-148 -148z" />
<glyph unicode="&#x632;" horiz-adv-x="622" arabic-form="final" d="M480 55q-11 -28 -23.5 -72t-27.5 -105q-18 -75 -42 -125.5t-50 -78.5q-41 -44 -174 -44q-34 0 -73 3q-20 -1 -35.5 -1.5t-27.5 -0.5q-52 0 -96 10l-6 6q-1 3 -1 9q0 15 15 21l370 172q79 109 103 179q-40 70 -59 117.5t-19 73.5q0 8 1 12v14q0 26 2.5 62t7.5 84l23 6 q27 -59 57.5 -96t63 -58.5t66.5 -30.5t69 -11q9 -21 18.5 -43t9.5 -53q0 -20 -6 -46t-22 -59q-92 9 -144 55zM201 693l147 147l148 -147l-148 -148z" />
<glyph unicode="&#x633;" horiz-adv-x="1418" arabic-form="isolated" d="M1346 432l-12 -160q-22 -127 -115 -127q-85 0 -129 95q-27 -40 -46 -63.5t-34.5 -36t-30.5 -16t-33 -3.5q-17 0 -32 3t-20 3q-9 0 -9 -9v-9q0 -106 -37 -203t-99 -171.5t-143.5 -118.5t-170.5 -44q-77 0 -144 33.5t-116 91.5t-77 136t-28 167q0 53 10 98t28 88t44 86 t59 93q4 -9 4 -23q0 -18 -42 -118q-42 -99 -42 -148q0 -91 58 -176q85 -129 258 -129q167 0 319 143q70 66 70 139q0 14 -6 35t-15 44.5t-19.5 46.5t-19.5 41.5t-14.5 29.5t-5.5 10q-2 8 -2 27q0 20 2 53.5t6 81.5q1 11 8 24q7 -8 19 -24t31 -41q49 -64 116 -64q76 0 144 93 q45 63 49 63q12 -78 20 -96q17 -34 74 -34q42 0 57 17q0 4 2 20t5 37t6.5 44t7.5 42.5t7.5 32t7.5 12.5q5 0 10.5 -13.5t10 -31.5t7 -36.5t2.5 -28.5v-6z" />
<glyph unicode="&#x633;" horiz-adv-x="1774" arabic-form="final" d="M1773 0q-3 -1 -11 -1q-16 0 -39 2.5t-49.5 12.5t-55.5 29.5t-56 52.5q-9 -5 -51 -65q-34 -49 -76 -49q-68 0 -129 90q-2 9 -12 16q-4 0 -7.5 -5l-10.5 -15q-27 -38 -60.5 -58t-70.5 -24q-2 0 -25.5 2t-69.5 6q-9 -51 -25.5 -111.5t-39.5 -133.5q-174 -279 -469 -279 q-77 0 -153.5 17.5t-138 61t-100 116.5t-38.5 185q0 43 3 86t12 88.5t24.5 93.5t40.5 101q35 74 59 74q4 0 6 -2l4 -6q0 2 -5.5 -11.5t-13.5 -34.5t-17 -45.5t-17 -46t-13 -35.5l-5 -14q-13 -42 -13 -93q0 -82 28.5 -146.5t80 -109.5t123.5 -68.5t160 -23.5q132 0 272 75 q186 100 186 205q0 15 -8.5 42.5t-19.5 57t-20.5 55.5t-10.5 37q-2 15 -3 29.5t-1 28.5q0 10 1.5 31t5 42t9.5 36.5t14 15.5t12 -3.5t13 -29.5q38 -107 162 -107q32 0 61.5 14.5t55.5 44.5l69 80l13 -6q0 -9 0.5 -21.5t5 -27.5t14.5 -30t28 -28q31 -22 58 -22q42 0 80 68 q45 81 55 88l23 -10v-8q0 -22 6 -50q38 -62 149 -63q10 -21 20.5 -44.5t10.5 -54.5q0 -21 -7 -46t-24 -56z" />
<glyph unicode="&#x633;" horiz-adv-x="900" arabic-form="initial" d="M198 232q45 22 91 103q12 22 24 22q5 0 8 -6.5t3 -15.5q0 -2 -4 -20t-4 -49q0 -34 30 -51t76 -17q25 0 42 8t31.5 28t29 54.5t35.5 87.5q2 3 5.5 6.5t8.5 7.5l8 -2q0 -29 10 -55t27.5 -45.5t42 -31t53.5 -11.5q30 0 49 16q0 53 1.5 87t5.5 50q0 11 16 84q1 6 6 6 q9 0 16 -17t11.5 -42t7 -54.5t2.5 -53.5q0 -56 -9 -106t-26 -87.5t-42 -59t-57 -21.5q-70 0 -140 93q-2 2 -4 2q-1 0 -6.5 -10.5t-14 -27t-18.5 -36t-21 -36.5q-38 -37 -80 -37q-57 0 -155 104l-12 14q-71 -41 -115 -63.5t-69.5 -33.5t-37.5 -13.5t-21 -2.5q-6 0 -12.5 9 t-11 22t-7.5 28t-3 28q0 23 7.5 51.5t24.5 62.5q39 2 92.5 7t105.5 24z" />
<glyph unicode="&#x633;" horiz-adv-x="1020" arabic-form="medial" d="M800 95q-58 -100 -131 -100q-29 0 -55.5 14t-54.5 54q-19 28 -22 28q-67 -94 -137 -94q-121 0 -157 195q-15 -25 -43 -57t-61.5 -61t-69.5 -50t-69 -24q-7 23 -14 47t-7 55q0 20 4.5 44.5t16.5 54.5q32 4 56 9.5t51.5 22t66.5 49t101 90.5q15 -5 15 -19q0 -4 -2.5 -13 t-5 -19.5t-5 -19.5t-2.5 -13q0 -14 10 -31t28.5 -31.5t44.5 -24t59 -9.5q27 0 46.5 8.5t36.5 26t34.5 45t39.5 65.5h4q13 0 13 -10q0 -6 -11 -33q3 -48 36 -76t81 -28q65 0 103 75l39 78q1 -1 18 -67q12 -18 24.5 -30.5t30.5 -21t43.5 -14t63.5 -9.5q6 -19 13.5 -41t7.5 -54 q0 -20 -4.5 -46t-16.5 -60q-73 7 -128.5 33.5t-90.5 61.5z" />
<glyph unicode="&#x634;" horiz-adv-x="1418" arabic-form="isolated" d="M1346 432l-12 -160q-22 -127 -115 -127q-85 0 -129 95q-27 -40 -46 -63.5t-34.5 -36t-30.5 -16t-33 -3.5q-17 0 -32 3t-20 3q-9 0 -9 -9v-9q0 -106 -37 -203t-99 -171.5t-143.5 -118.5t-170.5 -44q-77 0 -144 33.5t-116 91.5t-77 136t-28 167q0 53 10 98t28 88t44 86 t59 93q4 -9 4 -23q0 -18 -42 -118q-42 -99 -42 -148q0 -91 58 -176q85 -129 258 -129q167 0 319 143q70 66 70 139q0 14 -6 35t-15 44.5t-19.5 46.5t-19.5 41.5t-14.5 29.5t-5.5 10q-2 8 -2 27q0 20 2 53.5t6 81.5q1 11 8 24q7 -8 19 -24t31 -41q49 -64 116 -64q76 0 144 93 q45 63 49 63q12 -78 20 -96q17 -34 74 -34q42 0 57 17q0 4 2 20t5 37t6.5 44t7.5 42.5t7.5 32t7.5 12.5q5 0 10.5 -13.5t10 -31.5t7 -36.5t2.5 -28.5v-6zM1311 860l-148 -148l-131 131l-133 -131l-147 148l147 147l133 -133l131 133zM1171 1089l-147 -147l-148 147l148 148z " />
<glyph unicode="&#x634;" horiz-adv-x="1771" arabic-form="final" d="M1773 0q-3 -1 -11 -1q-16 0 -39 2.5t-49.5 12.5t-55.5 29.5t-56 52.5q-9 -5 -51 -65q-34 -49 -76 -49q-68 0 -129 90q-2 9 -12 16q-4 0 -7.5 -5l-10.5 -15q-27 -38 -60.5 -58t-70.5 -24q-2 0 -25.5 2t-69.5 6q-9 -51 -25.5 -111.5t-39.5 -133.5q-174 -279 -469 -279 q-77 0 -153.5 17.5t-138 61t-100 116.5t-38.5 185q0 43 3 86t12 88.5t24.5 93.5t40.5 101q35 74 59 74q4 0 6 -2l4 -6q0 2 -5.5 -11.5t-13.5 -34.5t-17 -45.5t-17 -46t-13 -35.5l-5 -14q-13 -42 -13 -93q0 -82 28.5 -146.5t80 -109.5t123.5 -68.5t160 -23.5q132 0 272 75 q186 100 186 205q0 15 -8.5 42.5t-19.5 57t-20.5 55.5t-10.5 37q-2 15 -3 29.5t-1 28.5q0 10 1.5 31t5 42t9.5 36.5t14 15.5t12 -3.5t13 -29.5q38 -107 162 -107q32 0 61.5 14.5t55.5 44.5l69 80l13 -6q0 -9 0.5 -21.5t5 -27.5t14.5 -30t28 -28q31 -22 58 -22q42 0 80 68 q45 81 55 88l23 -10v-8q0 -22 6 -50q38 -62 149 -63q10 -21 20.5 -44.5t10.5 -54.5q0 -21 -7 -46t-24 -56zM1615 747l-148 -148l-131 131l-133 -131l-147 148l147 147l133 -133l131 133zM1475 976l-147 -147l-148 147l148 148z" />
<glyph unicode="&#x634;" horiz-adv-x="898" arabic-form="initial" d="M197 232q45 22 91 103q12 22 24 22q5 0 8 -6.5t3 -15.5q0 -2 -4 -20t-4 -49q0 -34 30 -51t76 -17q25 0 42 8t31.5 28t29 54.5t35.5 87.5q2 3 5.5 6.5t8.5 7.5l8 -2q0 -29 10 -55t27.5 -45.5t42 -31t53.5 -11.5q30 0 49 16q0 53 1.5 87t5.5 50q0 11 16 84q1 6 6 6 q9 0 16 -17t11.5 -42t7 -54.5t2.5 -53.5q0 -56 -9 -106t-26 -87.5t-42 -59t-57 -21.5q-70 0 -140 93q-2 2 -4 2q-1 0 -6.5 -10.5t-14 -27t-18.5 -36t-21 -36.5q-38 -37 -80 -37q-57 0 -155 104l-12 14q-71 -41 -115 -63.5t-69.5 -33.5t-37.5 -13.5t-21 -2.5q-6 0 -12.5 9 t-11 22t-7.5 28t-3 28q0 23 7.5 51.5t24.5 62.5q39 2 92.5 7t105.5 24zM794 761l-148 -148l-131 131l-133 -131l-147 148l147 147l133 -133l131 133zM654 990l-147 -147l-148 147l148 148z" />
<glyph unicode="&#x634;" horiz-adv-x="1015" arabic-form="medial" d="M799 95q-58 -100 -131 -100q-29 0 -55.5 14t-54.5 54q-19 28 -22 28q-67 -94 -137 -94q-121 0 -157 195q-15 -25 -43 -57t-61.5 -61t-69.5 -50t-69 -24q-7 23 -14 47t-7 55q0 20 4.5 44.5t16.5 54.5q32 4 56 9.5t51.5 22t66.5 49t101 90.5q15 -5 15 -19q0 -4 -2.5 -13 t-5 -19.5t-5 -19.5t-2.5 -13q0 -14 10 -31t28.5 -31.5t44.5 -24t59 -9.5q27 0 46.5 8.5t36.5 26t34.5 45t39.5 65.5h4q13 0 13 -10q0 -6 -11 -33q3 -48 36 -76t81 -28q65 0 103 75l39 78q1 -1 18 -67q12 -18 24.5 -30.5t30.5 -21t43.5 -14t63.5 -9.5q6 -19 13.5 -41t7.5 -54 q0 -20 -4.5 -46t-16.5 -60q-73 7 -128.5 33.5t-90.5 61.5zM891 720l-148 -148l-131 131l-133 -131l-147 148l147 147l133 -133l131 133zM751 949l-147 -147l-148 147l148 148z" />
<glyph unicode="&#x635;" horiz-adv-x="1643" arabic-form="isolated" d="M1549 377q-11 -38 -72 -129q-27 -25 -72.5 -47.5t-98.5 -39t-109.5 -26.5t-104.5 -10q-24 0 -51.5 5t-51.5 10.5t-42 10.5t-22 5h-1q12 -29 12 -68q0 -92 -37 -175t-101 -146.5t-149 -101t-182 -37.5q-86 0 -158.5 34t-125.5 93t-83 138t-30 168q0 136 63 256 q50 95 76 95q8 -2 8 -23q0 -17 -10 -47.5t-39 -81.5q-37 -64 -37 -137q0 -56 22 -107t60 -91t88.5 -66.5t106.5 -34.5q84 -12 133 -12q103 0 177.5 40.5t129.5 125.5q12 19 18.5 39t6.5 46q0 15 -4.5 40t-11 55.5t-14.5 63.5t-14.5 63t-11 55t-4.5 39q0 59 11 76l8 2l65 -70 q17 -19 51.5 -35t74.5 -16q12 0 16 4q140 299 344 299q38 0 72.5 -13t60.5 -36t41.5 -55t15.5 -70q0 -43 -24 -88zM1489 414v1q0 6 -12 23q-44 56 -117 56q-31 0 -65.5 -10.5t-67.5 -28.5t-62.5 -41.5t-50.5 -48.5q-19 -22 -19 -34q0 -6 13.5 -9t30.5 -3q29 0 75.5 7 t110.5 22q140 32 164 66z" />
<glyph unicode="&#x635;" horiz-adv-x="1626" arabic-form="final" d="M1112 35q-105 15 -170 38h-3q-4 0 -5 -4q1 -5 1 -10v-10q0 -11 -1.5 -24t-3.5 -28q0 -89 -39.5 -168t-104.5 -138.5t-148 -94.5t-171 -35q-90 0 -163 34.5t-125 94t-80.5 138t-28.5 167.5q0 85 23.5 161t77.5 151q27 38 38 38h2q6 -2 6 -25q0 -17 -10.5 -46.5 t-38.5 -80.5q-37 -67 -37 -137q0 -54 23 -104.5t61 -91t88.5 -68t104.5 -35.5q32 -5 65 -7.5t66 -2.5q59 0 104 9t81 30t65.5 55.5t57.5 84.5q20 37 31 64.5t11 45.5q0 32 -35 108q-39 82 -39 139q0 23 1.5 52.5t17.5 58.5q3 0 9 -9t13.5 -22.5t17 -30.5t19.5 -32 q11 -12 35 -24.5t52.5 -22.5t57.5 -16.5t52 -6.5l10 6q96 175 115 199q39 50 89 76t107 26q49 0 84 -15t57 -42t32 -65t10 -84q0 -41 -9 -72.5t-23 -37.5q7 -6 18.5 -12t45.5 -8q9 -17 19 -37t10 -50q0 -21 -7 -48.5t-25 -65.5q-229 12 -356 21t-155 14zM1544 314 q-24 72 -116 72q-35 0 -73 -10.5t-73.5 -28.5t-65.5 -42.5t-48 -52.5l-10.5 -16.5t-3.5 -9.5q0 -5 19.5 -7.5t37.5 -2.5q29 0 64.5 4t71.5 10.5t70.5 16t62 20.5t45 23t19.5 24z" />
<glyph unicode="&#x635;" horiz-adv-x="1054" arabic-form="initial" d="M869 280q-32 66 -121 66q-37 0 -75.5 -12t-72.5 -32.5t-59.5 -46t-35.5 -52.5q0 -1 -0.5 -1t-0.5 -1q0 -7 38 -7q29 0 72.5 5.5t102.5 17.5q138 27 152 57v6zM149 43q-22 -13 -38.5 -20.5t-27.5 -11.5q-6 -2 -23 -5.5t-60 -5.5q-6 1 -12.5 12t-11.5 27t-8.5 35.5 t-3.5 39.5q0 28 8 52t28 35q76 4 138 24q58 55 81 120q16 22 32 53l8 11q2 2 6 2q10 0 10 -45v-56q0 -13 16 -30.5t38.5 -33.5t46.5 -27t39 -11q10 0 25.5 20t31 46t29 50.5t20.5 32.5q125 152 264 152q78 0 132.5 -48t66.5 -132q0 -8 -1 -24t-3 -40l-21 -73 q-31 -42 -73 -84q-99 -99 -385 -115q-20 2 -40.5 3t-42.5 1h-26q-7 -23 -29 -65q-4 12 -4 34q0 11 1 21.5t1 16.5q0 5 -1 7.5t-6 6.5t-15.5 11.5t-30.5 22.5q-53 39 -63 148l-12 4q-19 -96 -84 -161z" />
<glyph unicode="&#x635;" horiz-adv-x="960" arabic-form="medial" d="M468 26q-32 5 -51 6.5t-26 1.5q-2 0 -6 -8l-8.5 -17t-10 -17t-11.5 -8q-8 0 -8 21q0 19 1 28.5t2 13t1.5 3t-0.5 -0.5l-6 8q-30 19 -80 41l-10 12.5t-14 16.5h-6q-22 -26 -45.5 -49t-51.5 -40t-62 -27.5t-76 -10.5q-8 21 -19.5 41.5t-11.5 52.5q0 20 7 46t24 61 q21 1 50.5 6t63 17t70.5 33.5t75 55.5q25 63 37 63l6 -2q0 -11 1 -30.5t3 -48.5q1 -9 10.5 -19t23 -18.5t29.5 -13.5t29 -5q14 0 32.5 28.5t53.5 88.5q110 155 273 155q72 0 115 -36.5t43 -110.5q0 -55 -52 -157q19 -14 47 -14q20 0 50 8q6 -19 16 -40.5t10 -53.5 q0 -20 -6 -46.5t-22 -60.5q-78 2 -136 4t-102.5 3.5t-78 3t-62 3.5t-55 5t-56.5 7zM802 298l-3 17q-59 24 -109 24q-18 0 -41 -4.5t-48.5 -15t-51.5 -28t-48 -42.5q-21 -24 -23 -37l3 -7q10 -10 40 -10q23 0 65 10.5t86 26t80.5 33.5t49.5 33z" />
<glyph unicode="&#x636;" horiz-adv-x="1643" arabic-form="isolated" d="M1069 908l147 147l148 -147l-148 -148zM1549 377q-11 -38 -72 -129q-27 -25 -72.5 -47.5t-98.5 -39t-109.5 -26.5t-104.5 -10q-24 0 -51.5 5t-51.5 10.5t-42 10.5t-22 5h-1q12 -29 12 -68q0 -92 -37 -175t-101 -146.5t-149 -101t-182 -37.5q-86 0 -158.5 34t-125.5 93 t-83 138t-30 168q0 136 63 256q50 95 76 95q8 -2 8 -23q0 -17 -10 -47.5t-39 -81.5q-37 -64 -37 -137q0 -56 22 -107t60 -91t88.5 -66.5t106.5 -34.5q84 -12 133 -12q103 0 177.5 40.5t129.5 125.5q12 19 18.5 39t6.5 46q0 15 -4.5 40t-11 55.5t-14.5 63.5t-14.5 63t-11 55 t-4.5 39q0 59 11 76l8 2l65 -70q17 -19 51.5 -35t74.5 -16q12 0 16 4q140 299 344 299q38 0 72.5 -13t60.5 -36t41.5 -55t15.5 -70q0 -43 -24 -88zM1489 414v1q0 6 -12 23q-44 56 -117 56q-31 0 -65.5 -10.5t-67.5 -28.5t-62.5 -41.5t-50.5 -48.5q-19 -22 -19 -34 q0 -6 13.5 -9t30.5 -3q29 0 75.5 7t110.5 22q140 32 164 66z" />
<glyph unicode="&#x636;" horiz-adv-x="1624" arabic-form="final" d="M1112 35q-105 15 -170 38h-3q-4 0 -5 -4q1 -5 1 -10v-10q0 -11 -1.5 -24t-3.5 -28q0 -89 -39.5 -168t-104.5 -138.5t-148 -94.5t-171 -35q-90 0 -163 34.5t-125 94t-80.5 138t-28.5 167.5q0 85 23.5 161t77.5 151q27 38 38 38h2q6 -2 6 -25q0 -17 -10.5 -46.5 t-38.5 -80.5q-37 -67 -37 -137q0 -54 23 -104.5t61 -91t88.5 -68t104.5 -35.5q32 -5 65 -7.5t66 -2.5q59 0 104 9t81 30t65.5 55.5t57.5 84.5q20 37 31 64.5t11 45.5q0 32 -35 108q-39 82 -39 139q0 23 1.5 52.5t17.5 58.5q3 0 9 -9t13.5 -22.5t17 -30.5t19.5 -32 q11 -12 35 -24.5t52.5 -22.5t57.5 -16.5t52 -6.5l10 6q96 175 115 199q39 50 89 76t107 26q49 0 84 -15t57 -42t32 -65t10 -84q0 -41 -9 -72.5t-23 -37.5q7 -6 18.5 -12t45.5 -8q9 -17 19 -37t10 -50q0 -21 -7 -48.5t-25 -65.5q-229 12 -356 21t-155 14zM1544 314 q-24 72 -116 72q-35 0 -73 -10.5t-73.5 -28.5t-65.5 -42.5t-48 -52.5l-10.5 -16.5t-3.5 -9.5q0 -5 19.5 -7.5t37.5 -2.5q29 0 64.5 4t71.5 10.5t70.5 16t62 20.5t45 23t19.5 24zM1096 838l147 147l148 -147l-148 -148z" />
<glyph unicode="&#x636;" horiz-adv-x="1053" arabic-form="initial" d="M869 280q-32 66 -121 66q-37 0 -75.5 -12t-72.5 -32.5t-59.5 -46t-35.5 -52.5q0 -1 -0.5 -1t-0.5 -1q0 -7 38 -7q29 0 72.5 5.5t102.5 17.5q138 27 152 57v6zM149 43q-22 -13 -38.5 -20.5t-27.5 -11.5q-6 -2 -23 -5.5t-60 -5.5q-6 1 -12.5 12t-11.5 27t-8.5 35.5 t-3.5 39.5q0 28 8 52t28 35q76 4 138 24q58 55 81 120q16 22 32 53l8 11q2 2 6 2q10 0 10 -45v-56q0 -13 16 -30.5t38.5 -33.5t46.5 -27t39 -11q10 0 25.5 20t31 46t29 50.5t20.5 32.5q125 152 264 152q78 0 132.5 -48t66.5 -132q0 -8 -1 -24t-3 -40l-21 -73 q-31 -42 -73 -84q-99 -99 -385 -115q-20 2 -40.5 3t-42.5 1h-26q-7 -23 -29 -65q-4 12 -4 34q0 11 1 21.5t1 16.5q0 5 -1 7.5t-6 6.5t-15.5 11.5t-30.5 22.5q-53 39 -63 148l-12 4q-19 -96 -84 -161zM494 835l147 147l148 -147l-148 -148z" />
<glyph unicode="&#x636;" horiz-adv-x="956" arabic-form="medial" d="M467 26q-32 5 -51 6.5t-26 1.5q-2 0 -6 -8l-8.5 -17t-10 -17t-11.5 -8q-8 0 -8 21q0 19 1 28.5t2 13t1.5 3t-0.5 -0.5l-6 8q-30 19 -80 41l-10 12.5t-14 16.5h-6q-22 -26 -45.5 -49t-51.5 -40t-62 -27.5t-76 -10.5q-8 21 -19.5 41.5t-11.5 52.5q0 20 7 46t24 61 q21 1 50.5 6t63 17t70.5 33.5t75 55.5q25 63 37 63l6 -2q0 -11 1 -30.5t3 -48.5q1 -9 10.5 -19t23 -18.5t29.5 -13.5t29 -5q14 0 32.5 28.5t53.5 88.5q110 155 273 155q72 0 115 -36.5t43 -110.5q0 -55 -52 -157q19 -14 47 -14q20 0 50 8q6 -19 16 -40.5t10 -53.5 q0 -20 -6 -46.5t-22 -60.5q-78 2 -136 4t-102.5 3.5t-78 3t-62 3.5t-55 5t-56.5 7zM801 298l-3 17q-59 24 -109 24q-18 0 -41 -4.5t-48.5 -15t-51.5 -28t-48 -42.5q-21 -24 -23 -37l3 -7q10 -10 40 -10q23 0 65 10.5t86 26t80.5 33.5t49.5 33zM458 834l147 147l148 -147 l-148 -148z" />
<glyph unicode="&#x637;" horiz-adv-x="951" arabic-form="isolated" d="M873 336q-4 -44 -44 -135q-53 -119 -160 -158q-23 -8 -83.5 -17t-158.5 -20q-24 -3 -52 -3q-107 0 -276 36q-16 0 -29 12l14 21q14 2 42.5 5.5t58 9.5t53.5 14.5t29 19.5q34 58 36 166q1 42 1 75.5v58.5q0 31 -1 51.5t-5.5 50t-14.5 77.5t-27 133q-36 117 -36 195 q0 20 1.5 37.5t5 35t9.5 37t15 44.5q7 6 12 6q7 0 25 -30t53 -93q9 -17 9 -35q0 -8 -5 -23.5t-11.5 -32t-11.5 -30t-5 -16.5q5 -27 14 -60t21 -72q6 -47 9.5 -90.5t3.5 -85.5t-3.5 -82t-9.5 -78q0 -24 2 -32q112 172 308 172q44 0 82.5 -11t67.5 -30.5t45.5 -47t16.5 -60.5 q0 -4 -0.5 -7.5t-0.5 -7.5zM747 254q-59 58 -153 58q-44 0 -87 -13.5t-78.5 -37t-60.5 -55.5t-32 -70q2 -4 6 -5q43 6 95.5 16.5t115.5 24.5q160 37 192 64z" />
<glyph unicode="&#x637;" horiz-adv-x="994" arabic-form="final" d="M993 0q-49 -10 -121 -15.5t-170 -5.5q-114 0 -261.5 9t-335.5 29q-35 2 -35 26q0 39 101 53l131 13l12 10q1 2 8 20.5t15 42.5t15 47.5t7 36.5q0 6 -2 44t-5.5 93.5t-7 122.5t-7 131t-5.5 118.5t-2 86.5q0 43 2 83.5t6.5 72t11 50t15.5 18.5q5 0 7 -6t5.5 -22.5t10.5 -46 t22 -75.5q13 -35 18 -61.5t5 -46.5q0 -10 -3.5 -21t-9 -29t-11.5 -46t-11 -72v-9q0 -16 1.5 -50.5t5.5 -89.5q9 -131 13 -138l9 -4l96 72q47 35 92.5 52t87.5 17q29 0 62 -9t64 -28t57 -49t41 -72q5 -17 5 -33q0 -54 -47 -142q8 -2 14.5 -2h12.5q31 0 49 9t32 17 q7 -20 18 -42.5t11 -55.5q0 -20 -6.5 -45.5t-22.5 -57.5zM834 271q-39 83 -145 83q-146 0 -228 -108q-32 -42 -54 -75t-22 -44q0 -3 1.5 -5.5t21.5 -2.5q37 0 139 9h14q50 0 96.5 11.5t83 30t61 42.5t30.5 50z" />
<glyph unicode="&#x637;" horiz-adv-x="700" arabic-form="initial" d="M119 192l16 37q1 5 1 24q0 26 -2.5 72t-7.5 115q-12 265 -12 388q0 211 28 258h4q3 -2 11 -19t17 -38t16.5 -40.5t9.5 -25.5q1 -4 1 -13q0 -11 -3 -26t-6 -30.5t-6 -28.5t-3 -19q0 -20 2.5 -62t5 -88.5t5 -89.5t2.5 -65l-3 -169q64 85 123.5 125.5t116.5 40.5 q58 0 95.5 -18.5t59.5 -48t31 -65.5t9 -70q0 -22 -11.5 -61.5t-28.5 -80.5t-36.5 -74.5t-36.5 -43.5q-142 -87 -332 -87q-39 0 -84.5 2t-100.5 9q-8 21 -14.5 42t-6.5 50q0 21 5 47.5t16 61.5q37 -10 87 -10h16t16 1zM583 301q-70 70 -156 70q-131 0 -229 -137 q-17 -24 -16 -33q0 -4 9 -8t23.5 -7.5t31.5 -6t32 -2.5q31 0 71.5 9t82 24.5t80.5 36t68 44.5q5 3 5 6z" />
<glyph unicode="&#x637;" horiz-adv-x="688" arabic-form="medial" d="M689 0q-71 -12 -355 -12q-208 0 -334 12q-5 20 -14 42t-9 55q0 20 5 45.5t18 58.5h10q28 0 49.5 9t37.5 22.5t26 29t15 28.5q6 28 6 86q0 87 -45 434q-5 16 -7.5 36t-2.5 45t3.5 58.5t9.5 63.5t13 52.5t15 27.5h6l55 -162q4 -11 4 -20q0 -3 -4 -20.5t-8.5 -40t-8.5 -45.5 t-4 -37q0 -8 1 -11q8 -60 12 -113.5t4 -101.5v-166q2 -2 4 -2q6 0 7 1.5t6.5 9t19.5 23.5t45 44q77 70 173 70q45 0 80.5 -15t60.5 -38.5t38.5 -52.5t13.5 -56q0 -16 -1.5 -39.5t-5.5 -46.5t-11.5 -41t-20.5 -22q11 -5 24.5 -8.5t36.5 -3.5q7 0 15 0.5t17 1.5 q5 -20 14.5 -42.5t9.5 -55.5q0 -20 -5 -45.5t-19 -57.5zM547 265q-5 13 -23.5 25.5t-41.5 22t-46.5 15t-38.5 5.5q-81 0 -158 -64q-59 -50 -69 -71q0 -11 18.5 -18t42.5 -11t48.5 -5.5t36.5 -1.5q46 0 85 8.5t68.5 21t49 28.5t26.5 31z" />
<glyph unicode="&#x638;" horiz-adv-x="951" arabic-form="isolated" d="M457 774l147 147l148 -147l-148 -148zM873 336q-4 -44 -44 -135q-53 -119 -160 -158q-23 -8 -83.5 -17t-158.5 -20q-24 -3 -52 -3q-107 0 -276 36q-16 0 -29 12l14 21q14 2 42.5 5.5t58 9.5t53.5 14.5t29 19.5q34 58 36 166q1 42 1 75.5v58.5q0 31 -1 51.5t-5.5 50 t-14.5 77.5t-27 133q-36 117 -36 195q0 20 1.5 37.5t5 35t9.5 37t15 44.5q7 6 12 6q7 0 25 -30t53 -93q9 -17 9 -35q0 -8 -5 -23.5t-11.5 -32t-11.5 -30t-5 -16.5q5 -27 14 -60t21 -72q6 -47 9.5 -90.5t3.5 -85.5t-3.5 -82t-9.5 -78q0 -24 2 -32q112 172 308 172 q44 0 82.5 -11t67.5 -30.5t45.5 -47t16.5 -60.5q0 -4 -0.5 -7.5t-0.5 -7.5zM747 254q-59 58 -153 58q-44 0 -87 -13.5t-78.5 -37t-60.5 -55.5t-32 -70q2 -4 6 -5q43 6 95.5 16.5t115.5 24.5q160 37 192 64z" />
<glyph unicode="&#x638;" horiz-adv-x="994" arabic-form="final" d="M993 0q-49 -10 -121 -15.5t-170 -5.5q-114 0 -261.5 9t-335.5 29q-35 2 -35 26q0 39 101 53l131 13l12 10q1 2 8 20.5t15 42.5t15 47.5t7 36.5q0 6 -2 44t-5.5 93.5t-7 122.5t-7 131t-5.5 118.5t-2 86.5q0 43 2 83.5t6.5 72t11 50t15.5 18.5q5 0 7 -6t5.5 -22.5t10.5 -46 t22 -75.5q13 -35 18 -61.5t5 -46.5q0 -10 -3.5 -21t-9 -29t-11.5 -46t-11 -72v-9q0 -16 1.5 -50.5t5.5 -89.5q9 -131 13 -138l9 -4l96 72q47 35 92.5 52t87.5 17q29 0 62 -9t64 -28t57 -49t41 -72q5 -17 5 -33q0 -54 -47 -142q8 -2 14.5 -2h12.5q31 0 49 9t32 17 q7 -20 18 -42.5t11 -55.5q0 -20 -6.5 -45.5t-22.5 -57.5zM834 271q-39 83 -145 83q-146 0 -228 -108q-32 -42 -54 -75t-22 -44q0 -3 1.5 -5.5t21.5 -2.5q37 0 139 9h14q50 0 96.5 11.5t83 30t61 42.5t30.5 50zM543 809l147 147l148 -147l-148 -148z" />
<glyph unicode="&#x638;" horiz-adv-x="700" arabic-form="initial" d="M119 192l16 37q1 5 1 24q0 26 -2.5 72t-7.5 115q-12 265 -12 388q0 211 28 258h4q3 -2 11 -19t17 -38t16.5 -40.5t9.5 -25.5q1 -4 1 -13q0 -11 -3 -26t-6 -30.5t-6 -28.5t-3 -19q0 -20 2.5 -62t5 -88.5t5 -89.5t2.5 -65l-3 -169q64 85 123.5 125.5t116.5 40.5 q58 0 95.5 -18.5t59.5 -48t31 -65.5t9 -70q0 -22 -11.5 -61.5t-28.5 -80.5t-36.5 -74.5t-36.5 -43.5q-142 -87 -332 -87q-39 0 -84.5 2t-100.5 9q-8 21 -14.5 42t-6.5 50q0 21 5 47.5t16 61.5q37 -10 87 -10h16t16 1zM583 301q-70 70 -156 70q-131 0 -229 -137 q-17 -24 -16 -33q0 -4 9 -8t23.5 -7.5t31.5 -6t32 -2.5q31 0 71.5 9t82 24.5t80.5 36t68 44.5q5 3 5 6zM265 806l147 147l148 -147l-148 -148z" />
<glyph unicode="&#x638;" horiz-adv-x="688" arabic-form="medial" d="M689 0q-71 -12 -355 -12q-208 0 -334 12q-5 20 -14 42t-9 55q0 20 5 45.5t18 58.5h10q28 0 49.5 9t37.5 22.5t26 29t15 28.5q6 28 6 86q0 87 -45 434q-5 16 -7.5 36t-2.5 45t3.5 58.5t9.5 63.5t13 52.5t15 27.5h6l55 -162q4 -11 4 -20q0 -3 -4 -20.5t-8.5 -40t-8.5 -45.5 t-4 -37q0 -8 1 -11q8 -60 12 -113.5t4 -101.5v-166q2 -2 4 -2q6 0 7 1.5t6.5 9t19.5 23.5t45 44q77 70 173 70q45 0 80.5 -15t60.5 -38.5t38.5 -52.5t13.5 -56q0 -16 -1.5 -39.5t-5.5 -46.5t-11.5 -41t-20.5 -22q11 -5 24.5 -8.5t36.5 -3.5q7 0 15 0.5t17 1.5 q5 -20 14.5 -42.5t9.5 -55.5q0 -20 -5 -45.5t-19 -57.5zM547 265q-5 13 -23.5 25.5t-41.5 22t-46.5 15t-38.5 5.5q-81 0 -158 -64q-59 -50 -69 -71q0 -11 18.5 -18t42.5 -11t48.5 -5.5t36.5 -1.5q46 0 85 8.5t68.5 21t49 28.5t26.5 31zM265 834l147 147l148 -147l-148 -148z " />
<glyph unicode="&#x639;" horiz-adv-x="782" arabic-form="isolated" d="M762 510q0 -3 -4.5 -16t-10.5 -31t-13.5 -38t-14.5 -38t-12.5 -30.5t-7.5 -14.5q-20 -24 -57.5 -49.5t-90.5 -54.5q-132 -71 -162 -95q-19 -20 -48 -50.5t-68 -72.5q-131 -149 -131 -319q0 -91 53 -233q18 -50 18 -90q0 -21 -8 -21q-12 0 -45 50q-90 136 -90 305 q0 146 53.5 273t165.5 238v8q-15 0 -32 9t-32 23.5t-26.5 31t-15.5 31.5q-5 16 -7.5 32t-2.5 36q0 37 7 73.5t18 67.5t24.5 55t26.5 36q34 33 110 33q113 0 213 -55l6 -12q-1 -2 -4.5 -7.5t-9.5 -15.5h-4q-5 0 -26 2.5t-44.5 5t-41.5 5l-18 2.5q-27 0 -58 -8t-57.5 -22 t-44.5 -32t-18 -39q0 -18 19 -34.5t47 -29t60.5 -20t60.5 -7.5q64 0 129 26t118 61t70 35q5 0 6 -4z" />
<glyph unicode="&#x639;" horiz-adv-x="949" arabic-form="final" d="M741 106q-85 102 -85 247q0 17 1.5 35t1.5 35q0 19 -3 30t-11 11q-14 -3 -42.5 -14.5t-64 -28.5t-74 -38t-70.5 -44q-45 -45 -117 -123q-133 -145 -133 -321q0 -91 53 -233q18 -50 18 -90q0 -21 -8 -21q-12 0 -45 49q-92 140 -92 304q0 268 238 497l10 18q2 2 2 5 t-12 10.5t-26.5 14.5t-25.5 11.5t-8 1.5q-61 51 -61 129q4 23 8.5 55t11.5 74q25 174 203 174q121 0 248 -73l4 -9l-10 -22l-17 -8q-15 0 -26 4q-60 18 -119 18q-152 0 -225 -94l-2 -10q50 -107 210 -107q126 0 230 56q62 34 102 34q9 0 11.5 -3t2.5 -11q0 -14 -9.5 -37.5 t-22 -47t-25 -42t-18.5 -22.5l-20 -12t-18.5 -15t-13.5 -22t-5 -34q0 -44 20 -84t55.5 -72t84 -53t104.5 -27q5 -9 11.5 -18t12.5 -19.5t10 -23.5t4 -29q0 -20 -8.5 -47.5t-29.5 -63.5q-131 1 -210 106z" />
<glyph unicode="&#x639;" horiz-adv-x="717" arabic-form="initial" d="M-2 203q11 -1 20.5 -1.5t19.5 -0.5q38 0 65 9q0 5 -1.5 14t-3 19l-3 20t-1.5 18q0 30 6 62.5t16 63t23.5 56t29.5 39.5q45 41 121 41q11 0 17 1.5t17 -1.5t32.5 -13t65.5 -34q80 -44 81 -52l-2 -12q-2 -3 -5.5 -7.5t-8.5 -4.5q-7 0 -28 4.5t-45 10t-46 10t-31 4.5 q-75 0 -163 -52q-9 -8 -9 -18q0 -28 52 -68q23 -18 42 -29t37 -17t36 -8.5t38 -2.5q69 0 148 43q45 25 72.5 38t39.5 15l10 -4q2 -4 2 -9q0 -11 -7 -34.5t-16 -49t-18 -47t-12 -26.5q-17 -26 -80.5 -54.5t-173.5 -62.5q-203 -63 -284 -63h-53q-18 32 -27.5 57t-9.5 48t9 46 t28 52z" />
<glyph unicode="&#x639;" horiz-adv-x="700" arabic-form="medial" d="M0 201q12 2 38.5 5.5t59 8.5t66.5 10.5t62.5 12t46.5 13.5t18 14q-7 17 -32 38t-83 31q-62 10 -62 18q0 -2 1.5 15.5t6 41t13 45.5t22.5 28q82 39 226 39q47 0 88 -6t71.5 -17.5t48 -29t17.5 -41.5q0 -37 -27 -101l-28 -67q12 -37 147 -58q8 -21 18 -45t10 -55 q0 -21 -6 -46t-22 -55q-209 33 -295 128q-88 -33 -149.5 -55.5t-103.5 -36.5t-67.5 -21.5t-40.5 -10.5t-24 -3.5t-17 -0.5q-5 0 -10 12t-9 28.5t-6.5 33t-2.5 25.5q0 22 5.5 47t19.5 55z" />
<glyph unicode="&#x63a;" horiz-adv-x="782" arabic-form="isolated" d="M762 510q0 -3 -4.5 -16t-10.5 -31t-13.5 -38t-14.5 -38t-12.5 -30.5t-7.5 -14.5q-20 -24 -57.5 -49.5t-90.5 -54.5q-132 -71 -162 -95q-19 -20 -48 -50.5t-68 -72.5q-131 -149 -131 -319q0 -91 53 -233q18 -50 18 -90q0 -21 -8 -21q-12 0 -45 50q-90 136 -90 305 q0 146 53.5 273t165.5 238v8q-15 0 -32 9t-32 23.5t-26.5 31t-15.5 31.5q-5 16 -7.5 32t-2.5 36q0 37 7 73.5t18 67.5t24.5 55t26.5 36q34 33 110 33q113 0 213 -55l6 -12q-1 -2 -4.5 -7.5t-9.5 -15.5h-4q-5 0 -26 2.5t-44.5 5t-41.5 5l-18 2.5q-27 0 -58 -8t-57.5 -22 t-44.5 -32t-18 -39q0 -18 19 -34.5t47 -29t60.5 -20t60.5 -7.5q64 0 129 26t118 61t70 35q5 0 6 -4zM216 924l147 147l148 -147l-148 -148z" />
<glyph unicode="&#x63a;" horiz-adv-x="949" arabic-form="final" d="M741 106q-85 102 -85 247q0 17 1.5 35t1.5 35q0 19 -3 30t-11 11q-14 -3 -42.5 -14.5t-64 -28.5t-74 -38t-70.5 -44q-45 -45 -117 -123q-133 -145 -133 -321q0 -91 53 -233q18 -50 18 -90q0 -21 -8 -21q-12 0 -45 49q-92 140 -92 304q0 268 238 497l10 18q2 2 2 5 t-12 10.5t-26.5 14.5t-25.5 11.5t-8 1.5q-61 51 -61 129q4 23 8.5 55t11.5 74q25 174 203 174q121 0 248 -73l4 -9l-10 -22l-17 -8q-15 0 -26 4q-60 18 -119 18q-152 0 -225 -94l-2 -10q50 -107 210 -107q126 0 230 56q62 34 102 34q9 0 11.5 -3t2.5 -11q0 -14 -9.5 -37.5 t-22 -47t-25 -42t-18.5 -22.5l-20 -12t-18.5 -15t-13.5 -22t-5 -34q0 -44 20 -84t55.5 -72t84 -53t104.5 -27q5 -9 11.5 -18t12.5 -19.5t10 -23.5t4 -29q0 -20 -8.5 -47.5t-29.5 -63.5q-131 1 -210 106zM301 1200l147 147l148 -147l-148 -148z" />
<glyph unicode="&#x63a;" horiz-adv-x="717" arabic-form="initial" d="M-2 203q11 -1 20.5 -1.5t19.5 -0.5q38 0 65 9q0 5 -1.5 14t-3 19l-3 20t-1.5 18q0 30 6 62.5t16 63t23.5 56t29.5 39.5q45 41 121 41q11 0 17 1.5t17 -1.5t32.5 -13t65.5 -34q80 -44 81 -52l-2 -12q-2 -3 -5.5 -7.5t-8.5 -4.5q-7 0 -28 4.5t-45 10t-46 10t-31 4.5 q-75 0 -163 -52q-9 -8 -9 -18q0 -28 52 -68q23 -18 42 -29t37 -17t36 -8.5t38 -2.5q69 0 148 43q45 25 72.5 38t39.5 15l10 -4q2 -4 2 -9q0 -11 -7 -34.5t-16 -49t-18 -47t-12 -26.5q-17 -26 -80.5 -54.5t-173.5 -62.5q-203 -63 -284 -63h-53q-18 32 -27.5 57t-9.5 48t9 46 t28 52zM134 908l147 147l148 -147l-148 -148z" />
<glyph unicode="&#x63a;" horiz-adv-x="700" arabic-form="medial" d="M0 201q12 2 38.5 5.5t59 8.5t66.5 10.5t62.5 12t46.5 13.5t18 14q-7 17 -32 38t-83 31q-62 10 -62 18q0 -2 1.5 15.5t6 41t13 45.5t22.5 28q82 39 226 39q47 0 88 -6t71.5 -17.5t48 -29t17.5 -41.5q0 -37 -27 -101l-28 -67q12 -37 147 -58q8 -21 18 -45t10 -55 q0 -21 -6 -46t-22 -55q-209 33 -295 128q-88 -33 -149.5 -55.5t-103.5 -36.5t-67.5 -21.5t-40.5 -10.5t-24 -3.5t-17 -0.5q-5 0 -10 12t-9 28.5t-6.5 33t-2.5 25.5q0 22 5.5 47t19.5 55zM214 908l147 147l148 -147l-148 -148z" />
<glyph unicode="&#x641;" horiz-adv-x="1346" arabic-form="isolated" d="M1216 927l-148 -147l-147 147l147 147zM1213 330l-4 14q-2 2 -4 2t-6 -1t-9 -3q-39 -12 -86 -12q-79 0 -118 40.5t-39 118.5q0 40 9.5 76t27 64t41.5 44.5t53 16.5q19 0 43 -8q155 -57 155 -264q0 -48 -10.5 -94.5t-30.5 -86.5t-48.5 -71t-63.5 -49q-223 -113 -482 -113 q-189 0 -360 62q-211 75 -211 299q0 30 4 70.5t13.5 79.5t24.5 71t38 45h14q2 -2 2 -8q0 -8 -43 -164q-1 -7 -1.5 -12.5t-0.5 -10.5q0 -54 38 -96.5t106.5 -72.5t164 -46t211.5 -16q104 0 265 12q3 0 26 4.5t56 12.5t71 18.5t71.5 23t56.5 26.5t26 28z" />
<glyph unicode="&#x641;" horiz-adv-x="1457" arabic-form="final" d="M1206 25q-8 3 -21.5 4.5t-27.5 2t-27 1t-20 0.5q-38 0 -94 -9.5t-119 -22t-127 -24t-118 -14.5q-50 -3 -109 -3q-40 0 -84.5 1t-95.5 4q-293 51 -293 344q0 21 3 48.5t8 56.5t12.5 57t17 50.5t21 36t24.5 13.5l6 -4q4 -5 4 -19q0 -10 -4 -30.5t-8.5 -43t-8 -43 t-3.5 -30.5q0 -58 31 -103.5t83 -76.5t120 -47t142 -16q31 0 66 3q135 10 233.5 23t163.5 30q2 1 13 8l4 201q11 90 50 136t107 46q33 0 62 -12t51 -33t36 -49.5t17 -61.5q0 2 0.5 -12t1 -34.5t1 -43.5t0.5 -40q0 -38 -14.5 -67.5t-29.5 -45.5q16 -6 37.5 -8.5t47.5 -2.5 q39 0 92 6q11 -21 20.5 -44.5t9.5 -53.5q0 -21 -6.5 -46t-23.5 -57zM1264 300v6q0 19 -15 37t-37 31.5t-47.5 21.5t-47.5 8q-46 0 -52 -33l-2 -10v-8q0 -92 111 -92q78 0 90 39zM1004 907l147 147l148 -147l-148 -148z" />
<glyph unicode="&#x641;" horiz-adv-x="559" arabic-form="initial" d="M243 219q64 10 112 25.5t80 35.5l-16 19q-69 -25 -110 -25q-81 0 -126.5 46.5t-45.5 127.5q0 30 7 61t18.5 57t27 44.5t33.5 24.5q27 8 50 8q34 0 68 -17q148 -73 148 -274q0 -59 -14.5 -109t-39.5 -89t-58.5 -67t-70.5 -43q-111 -44 -303 -44h-3q-14 20 -26.5 41 t-12.5 50q0 21 8.5 48t30.5 62q19 0 39.5 1t48.5 3t65 5t90 9zM140 908l147 147l148 -147l-148 -148z" />
<glyph unicode="&#x641;" horiz-adv-x="679" arabic-form="medial" d="M343 105q-161 -105 -343 -105q-6 4 -12 15.5t-10 27t-6.5 34t-2.5 36.5q0 29 7 54t24 36q40 -6 71 -6q40 0 70.5 10.5t54.5 26.5l-5 9q0 5 -3 25t-11 55q-3 14 -5.5 27t-1.5 24v9.5t1 9.5q19 130 33 162q17 42 51 64t85 22q40 0 75.5 -13t62 -36t42 -55.5t15.5 -71.5 q0 -8 -9 -71t-39 -172q58 -24 137 -24q26 0 55 3q11 -5 17.5 -35t6.5 -66q0 -31 -5.5 -59t-18.5 -41q-39 0 -89 9t-98 24t-88 34t-61 38zM474 354v8q-7 18 -25.5 34t-42.5 27.5t-49.5 18t-46.5 6.5q-53 0 -65 -32q2 -13 15 -32t31 -36.5t37 -30t33 -12.5q7 0 25 6t36.5 14.5 t34 16.5t17.5 12zM204 907l147 147l148 -147l-148 -148z" />
<glyph unicode="&#x642;" horiz-adv-x="1070" arabic-form="isolated" d="M1000 927l-148 -147l-131 131l-133 -129l-145 145l145 148l133 -131l131 131zM947 358q0 -136 -48 -260q-7 -12 -61 -88q-34 -47 -78 -87t-94 -68.5t-103.5 -44.5t-105.5 -16q-89 0 -161 34t-122 92.5t-77 137.5t-27 169q0 31 6 72t16 84.5t23.5 85t27.5 74.5t28.5 53 t27.5 20q4 0 4 -8q0 -23 -33 -123q-41 -126 -41 -163q0 -35 9.5 -72.5t26.5 -72.5t41 -66.5t54 -53.5q91 -63 207 -63q183 0 359 147q25 21 41 37.5t25 29.5t12.5 23.5t3.5 20.5q0 49 -33 100l-12 4q-13 -8 -43 -20t-66 -12q-156 0 -156 176q0 194 127 194q48 0 88 -28 q134 -93 134 -308z" />
<glyph unicode="&#x642;" horiz-adv-x="1159" arabic-form="final" d="M970 -97q-23 -64 -68.5 -124.5t-103 -109t-122 -81t-125.5 -39.5q-17 -2 -35.5 -3t-37.5 -1q-93 0 -168.5 32t-129 91.5t-82 143.5t-28.5 188q0 262 150 360h2q5 0 10 -6q0 -5 -57 -128q-56 -123 -56 -163q0 -15 5 -39.5t15 -51.5t24 -52.5t32 -42.5q54 -67 133 -102 t197 -35q193 0 381 186q23 23 23 57q0 10 -3 17.5t-11 13.5t-23.5 10t-39.5 6q-63 5 -104 13t-66 21.5t-37.5 34t-19.5 50.5q-4 9 -4.5 28.5t-0.5 36.5q0 146 126 187q71 0 149 -90l25 -29q29 -17 49.5 -33t39 -29t39 -20.5t49.5 -7.5t62 9q11 -21 20.5 -44.5t9.5 -53.5 q0 -21 -6.5 -46t-23.5 -57q-11 -2 -24 -3.5t-27 -1.5q-21 0 -48 6t-64 23zM1033 684l-147 -150l-138 131l-127 -129l-145 146l145 149l134 -133l131 131z" />
<glyph unicode="&#x642;" horiz-adv-x="574" arabic-form="initial" d="M243 219q64 10 112 25.5t80 35.5l-16 19q-69 -25 -110 -25q-81 0 -126.5 46.5t-45.5 127.5q0 30 7 61t18.5 57t27 44.5t33.5 24.5q27 8 50 8q34 0 68 -17q148 -73 148 -274q0 -59 -14.5 -109t-39.5 -89t-58.5 -67t-70.5 -43q-111 -44 -303 -44h-3q-14 20 -26.5 41 t-12.5 50q0 21 8.5 48t30.5 62q19 0 39.5 1t48.5 3t65 5t90 9zM555 910l-147 -150l-138 131l-127 -129l-145 146l145 149l134 -133l131 131z" />
<glyph unicode="&#x642;" horiz-adv-x="679" arabic-form="medial" d="M343 105q-161 -105 -343 -105q-6 4 -12 15.5t-10 27t-6.5 34t-2.5 36.5q0 29 7 54t24 36q40 -6 71 -6q40 0 70.5 10.5t54.5 26.5l-5 9q0 5 -3 25t-11 55q-3 14 -5.5 27t-1.5 24v9.5t1 9.5q19 130 33 162q17 42 51 64t85 22q40 0 75.5 -13t62 -36t42 -55.5t15.5 -71.5 q0 -8 -9 -71t-39 -172q58 -24 137 -24q26 0 55 3q11 -5 17.5 -35t6.5 -66q0 -31 -5.5 -59t-18.5 -41q-39 0 -89 9t-98 24t-88 34t-61 38zM474 354v8q-7 18 -25.5 34t-42.5 27.5t-49.5 18t-46.5 6.5q-53 0 -65 -32q2 -13 15 -32t31 -36.5t37 -30t33 -12.5q7 0 25 6t36.5 14.5 t34 16.5t17.5 12zM633 874l-147 -150l-138 131l-127 -129l-145 146l145 149l134 -133l131 131z" />
<glyph unicode="&#x643;" horiz-adv-x="1037" arabic-form="isolated" d="M672 641q-32 -72 -184 -72q-20 0 -52 1t-62.5 5t-52.5 11t-22 18q0 5 13.5 8.5t42 7.5t73 10t106.5 16q83 14 83 16t-2 4h-103q-46 0 -69 15t-23 48q0 24 14 48t36 43.5t47.5 31.5t48.5 12q28 0 28 -24q0 -19 -12 -43l-18 -9q-23 5 -37 5q-45 0 -49 -33q4 -21 47 -21 q7 0 17.5 0.5t22 1.5t22 1.5t18.5 0.5q79 0 79 -51q0 -23 -12 -51zM963 952q1 -2 1 -9q0 -8 -2 -24.5t-5 -39t-7.5 -49.5t-9.5 -54v-18q0 -23 1.5 -55.5t3.5 -69.5t4.5 -75t4.5 -72t3.5 -60t1.5 -39q0 -99 -15.5 -166t-52 -110t-97 -65.5t-149.5 -33.5q-42 -5 -77.5 -7.5 t-65.5 -2.5q-432 0 -432 338q0 48 6.5 91t16 77.5t20.5 58t20 33.5l9 2q4 -7 4 -18q0 -9 -4 -28.5t-8.5 -41t-8.5 -41.5t-4 -31q0 -49 24 -91.5t75.5 -74t132 -49.5t194.5 -18q64 0 126 7.5t112 20.5t83.5 31t41.5 39q4 11 4 49q0 35 -4 96t-9.5 135t-12 154t-12 154 t-9.5 135t-4 96q0 114 20 140l8 2q6 -5 10.5 -26.5t9.5 -55t11 -75.5t14 -87q15 -32 27 -72z" />
<glyph unicode="&#x643;" horiz-adv-x="1285" arabic-form="final" d="M1285 0q-14 0 -32 6.5t-38.5 21t-43 37.5t-43.5 58q-35 43 -61 185v1q-2 0 -13 -38q-20 -67 -73.5 -117t-127.5 -83.5t-160 -50t-170 -16.5q-106 0 -190 18t-142.5 57.5t-89.5 102.5t-31 152q0 46 9.5 93.5t22.5 85t26.5 61.5t21.5 24l8 -6q0 -5 -6.5 -28t-14 -50.5 t-14 -53.5t-6.5 -36q0 -102 108.5 -161.5t319.5 -59.5q84 0 169 11.5t153.5 39t111.5 73.5t43 115q0 64 -30 316q-8 67 -12.5 156t-4.5 202q0 71 25 133l10 4q12 -5 21 -135l34 -483q11 -80 21 -141t20 -104q60 -165 179 -189q13 0 23.5 -9.5t17.5 -24.5t11 -33.5t4 -37.5 q0 -18 -3.5 -34.5t-10 -30t-17 -22t-25.5 -9.5zM697 678v-12q0 -56 -61 -86.5t-163 -30.5q-84 0 -96 16l-2 8q4 4 13 6.5t27 5t45 5.5t67 6q20 1 43 6t43 11.5t33.5 15.5t13.5 20q0 6 -13.5 11.5t-42.5 5.5q-6 0 -19 -1.5t-26.5 -4t-24.5 -4t-15 -1.5q-52 0 -52 45 q0 19 11.5 47t29.5 54.5t39 45.5t41 19q31 0 31 -47q0 -1 -2 -10.5t-5 -22t-5 -24.5t-2 -18q0 -10 13 -12t29.5 -5.5t31.5 -13.5t18 -35zM580 766q0 27 -23 27q-51 0 -51 -50q0 -10 7.5 -17t23.5 -7q5 0 10.5 0.5t11.5 1.5l13 10q8 22 8 35z" />
<glyph unicode="&#x643;" horiz-adv-x="434" arabic-form="initial" d="M178 236q12 6 26 15t25.5 18.5t20 17.5t10.5 13q0 55 -121 252q-38 61 -62.5 109t-38.5 85.5t-20 66t-6 49.5q0 41 24 81.5t62 74.5q62 45 197 148.5t346 267.5q1 0 1 0.5t1 0.5q7 0 7 -16t-7 -50.5t-20 -89.5q-18 -75 -29 -110t-19 -35q-2 0 -5 4t-3 25q0 22 -2 26t-4 4 h-1q-35 -19 -143 -97.5t-286 -214.5q-30 -23 -30 -39q0 -4 5.5 -13.5t13 -21.5t16 -25t14.5 -22q48 -73 81.5 -131.5t54.5 -108t30.5 -93.5t9.5 -87q0 -55 -21 -106q-75 -188 -306 -234q-26 11 -36.5 37.5t-10.5 56.5q0 18 3.5 36t10 33t15 25t18.5 13q19 4 35 6t35.5 5 t45 8t63.5 16z" />
<glyph unicode="&#x643;" horiz-adv-x="740" arabic-form="medial" d="M202 288q43 46 43 106q0 70 -51 147q-11 26 -28.5 63t-40.5 88q-46 99 -46 193q0 20 4 35q0 1 4.5 12t11 26.5t14 34t14.5 34t11.5 26t5.5 11.5q21 24 64 58.5t95 72.5t107 75.5t100 67.5t74 49l29 19q13 9 25.5 18t26.5 18q2 -6 2 -10q-1 -2 -17.5 -47t-48.5 -133 q-3 -9 -9 -24.5t-12.5 -31t-13 -26.5t-11.5 -11t-5 9q0 3 2 11.5t5 18.5t5 19.5t2 13.5q0 5 -2 7q-25 0 -268 -195q-80 -64 -116 -99t-36 -46q0 -39 62 -176q26 -59 47 -104.5t41 -78.5q43 -60 84 -107t80 -83q109 -127 284 -148q11 -14 21 -42.5t10 -62.5q0 -25 -7 -50 t-24 -46q-148 31 -205 85q-48 23 -104.5 88t-128.5 178l-10 -2q-2 -62 -60 -197q-77 -117 -232 -152q-15 10 -26 36.5t-11 60.5q0 26 8.5 53.5t28.5 50.5q18 4 36 10.5t40.5 16.5t52.5 24.5t73 35.5z" />
<glyph unicode="&#x644;" horiz-adv-x="1023" arabic-form="isolated" d="M944 383q9 -71 9 -131q0 -116 -38 -219.5t-103.5 -182t-151.5 -124.5t-182 -46q-89 0 -164 33.5t-129 92t-84.5 138.5t-30.5 173q0 50 13 107.5t33 108.5t44.5 88t48.5 46q1 1 3 1q3 0 5 -5q0 -14 -6 -27q-80 -174 -80 -260q0 -62 27.5 -117t74.5 -96t109 -65t131 -24 q81 0 155 26.5t129.5 73t88.5 110t33 137.5q0 45 -5.5 89t-15.5 97t-24 119.5t-31 157.5q-26 138 -38.5 239t-12.5 167q0 9 2 36t6.5 55.5t11.5 51t17 22.5q7 0 23.5 -32t43.5 -88q9 -18 9 -37q0 -9 -4.5 -24.5t-10 -31t-10 -28.5t-4.5 -17q0 -54 27 -190q6 -45 19.5 -116.5 t35.5 -170.5q6 -26 12.5 -60t13.5 -77z" />
<glyph unicode="&#x644;" horiz-adv-x="1165" arabic-form="final" d="M932 104q-4 -69 -12.5 -123t-25 -99.5t-42.5 -86t-65 -83.5q-37 -43 -75 -72t-77.5 -46t-80.5 -24.5t-83 -7.5q-89 0 -162.5 33t-126.5 91.5t-82.5 137.5t-29.5 172q0 50 12 108t32 109t44.5 88t50.5 46h2q5 0 5 -11q0 -5 -1.5 -11t-3.5 -8q-82 -168 -82 -262 q0 -63 28.5 -118t76 -96t109.5 -64.5t130 -23.5q183 0 306 120q36 37 56 67t29.5 57.5t11.5 54.5t2 58q0 27 -3 55.5t-8 59.5q-3 18 -19 102.5t-45 237.5q-27 143 -40 243.5t-13 161.5q0 12 2.5 39t7.5 55.5t12.5 50t16.5 21.5q3 -1 7.5 -6.5t18.5 -32.5l41 -84q9 -18 9 -35 q0 -9 -5 -25t-10.5 -32.5t-10.5 -29.5t-5 -15q0 -43 29 -191q6 -45 21 -112.5t38 -160.5q22 -58 48 -96t56 -62t64.5 -36t74.5 -17q19 -10 29 -38.5t10 -62.5q0 -31 -9.5 -59t-29.5 -41q-141 12 -233 104z" />
<glyph unicode="&#x644;" horiz-adv-x="346" arabic-form="initial" d="M0 201q42 7 79 22.5t65 37t44 49t16 59.5q0 41 -10.5 100.5t-27.5 134.5q-31 143 -31 237q0 11 2.5 38t7.5 55t12.5 49.5t16.5 21.5q2 0 14 -19t26 -45t25 -52.5t11 -41.5q0 -8 -4.5 -23.5t-10 -32l-10 -30t-4.5 -16.5q5 -26 12.5 -72t18.5 -112q24 -197 24 -200 q0 -46 -7 -85t-19 -71t-27 -57t-31 -41q-26 -27 -53 -46t-52.5 -32t-48 -20t-38.5 -9q-22 11 -35 39t-13 60q0 27 11 54.5t37 47.5z" />
<glyph unicode="&#x644;" horiz-adv-x="605" arabic-form="medial" d="M605 201q14 -11 27 -42t13 -67q0 -25 -9 -49t-31 -43q-148 21 -236 121q-42 36 -66 49q-27 -19 -55.5 -42.5t-64 -47t-80.5 -45t-105 -35.5q-8 2 -14.5 11.5t-11.5 23.5t-7.5 31t-2.5 35q0 29 8 57t28 43q30 1 65 7.5t70 24t67 48.5t56 81q0 73 -27 384q-5 50 -8 90.5 t-3 72.5q0 52 8 81t22 29q5 0 16 -7q6 0 41 -297q29 -331 37 -349q71 -155 263 -165z" />
<glyph unicode="&#x645;" horiz-adv-x="808" arabic-form="isolated" d="M738 319q0 -60 -55 -258q-17 -59 -80 -59q-41 0 -140 41q-97 41 -128 41l-13 -6q-8 -20 -22.5 -47.5t-36.5 -62.5q-73 -98 -287 -154q-48 -12 -76 -12h-11t-9 2q3 0 7 7t9 24q85 57 181.5 128t208.5 156q8 9 17.5 29t18.5 42t16.5 40.5t10.5 23.5q17 28 41 70t55 100 q69 96 167 96q33 0 57 -19t39 -48.5t22.5 -65t7.5 -68.5zM666 207q0 9 -7 29.5t-21 41.5t-35 36.5t-49 15.5q-79 0 -111 -62l4 -14q116 -59 195 -59q24 0 24 12z" />
<glyph unicode="&#x645;" horiz-adv-x="715" arabic-form="final" d="M545 45q-5 2 -9 3t-6 1q-5 0 -5.5 -6t-5.5 -31l-4 -20q-4 -20 -14.5 -33t-28.5 -13q-92 0 -117 93q-4 29 -7.5 59t-6.5 60q-9 12 -54 12q-85 0 -147 -86q-8 -13 -8 -68q0 -106 9 -218.5t28 -233.5q2 -14 3 -28.5t1 -29.5q0 -8 -2 -36.5t-6 -60t-9 -56t-12 -24.5t-18 92 l-33 272q-11 94 -17 169.5t-6 133.5q0 81 9.5 140.5t30 102.5t53 70.5t79.5 42.5q20 6 39 9.5t39 3.5q31 0 70 -11q30 22 69 35q0 -31 27 -88q77 -80 231 -100q7 0 13 -9t11 -23.5t8 -33.5t3 -38q0 -12 -2 -28.5t-7 -32t-13 -26t-20 -10.5q-99 0 -165 45z" />
<glyph unicode="&#x645;" horiz-adv-x="801" arabic-form="initial" d="M262 297l129 170q48 52 93 79t89 27q36 0 64.5 -17t48.5 -46.5t30.5 -70.5t10.5 -89v-9t-0.5 -15.5t-1.5 -29t-4 -48.5q0 -36 -55 -147q-20 -39 -74 -39q-34 0 -314 123q-11 -20 -53 -62q-140 -119 -225 -123q-6 2 -12 12.5t-11 26.5t-8 35.5t-3 39.5q0 26 7 49.5 t25 37.5l21 3q23 6 45 11t49.5 14t63 24.5t85.5 43.5zM639 275q0 20 -15 39t-36.5 33.5t-46.5 23t-45 8.5q-9 0 -20 -2t-20.5 -6t-15.5 -10.5t-6 -14.5q0 -5 6 -8q51 -35 101 -58t90 -23q8 0 8 18z" />
<glyph unicode="&#x645;" horiz-adv-x="580" arabic-form="medial" d="M538 -6q-5 0 -10 -0.5t-10 -0.5q-14 0 -26.5 1t-24.5 3q-3 -3 -25 -84q-14 -53 -71 -53q-67 0 -78 53q1 16 1.5 32t0.5 33q0 23 -1 47t-3 50q-8 6 -17 6q-69 -29 -110 -45.5t-65.5 -25t-39 -10.5t-29.5 -2h-15t-15 2q-14 8 -27 39t-13 68q0 26 9 51.5t31 42.5h9 q63 0 129.5 16.5t116.5 42.5l6 6q6 4 10.5 19.5t8 34.5t6 36t5.5 24l8 4q27 -86 50 -104q29 -33 106 -62q55 -12 82 -13.5t43 -3.5q14 -7 24 -38t10 -67q0 -28 -7.5 -54t-26.5 -42q-9 -2 -42 -6z" />
<glyph unicode="&#x646;" horiz-adv-x="998" arabic-form="isolated" d="M660 645l-148 -147l-147 147l147 154zM926 375v-17q0 -17 -2 -47.5t-5 -62t-6 -57.5t-5 -33q-17 -56 -49.5 -111t-74.5 -101.5t-91.5 -80.5t-98.5 -47q-68 -18 -127 -18q-85 0 -157.5 33t-126 91.5t-83.5 138t-30 173.5q0 50 12.5 107t32.5 108t45 88.5t51 48.5h2 q2 0 3.5 -3.5t1.5 -8.5t-2 -12t-3 -9q-82 -168 -82 -260q0 -63 28.5 -118t76 -96.5t110 -65t130.5 -23.5q183 0 305 121q102 102 102 182q0 38 -40 130t-40 150q0 7 1 22t3 31t6 28t9 12q17 0 67 -152q17 -54 26.5 -89t10.5 -52z" />
<glyph unicode="&#x646;" horiz-adv-x="1053" arabic-form="final" d="M934 52q-8 -128 -48.5 -225t-102.5 -162t-140 -98t-161 -33q-243 0 -337 120q-83 104 -83 230q0 40 4.5 79t12 74.5t17 67t18.5 57.5q39 113 112 168h2q5 0 9 -4q-101 -219 -101 -268q0 -44 15 -84q82 -240 340 -240q105 0 206 45q16 7 48.5 27t65 48t57 60.5t24.5 65.5 q0 38 -39 112q-13 24 -21.5 40.5t-13.5 29.5t-7 25t-3 28.5t-0.5 40t0.5 58.5q0 41 6 59l10 4q2 0 14.5 -16t29.5 -37.5t36 -44.5t34 -36q35 -30 115 -42h4q10 0 19.5 -9t16.5 -23t11 -32.5t4 -37.5q0 -32 -12.5 -60t-42.5 -39q-24 3 -40 7t-28.5 10t-24 14.5t-26.5 20.5z M395 422l147 147l148 -147l-148 -148z" />
<glyph unicode="&#x646;" horiz-adv-x="460" arabic-form="initial" d="M16 200q8 -1 16.5 -1h16.5q155 0 312 77q1 2 1 8q0 9 -7 33t-15 51.5t-15 54.5t-7 42q0 19 9 56t35 103l8 -1q3 -10 8 -24q4 -12 10.5 -30.5t14.5 -42.5q20 -59 20 -130q0 -42 -7.5 -88.5t-24.5 -97.5q-69 -211 -349 -211h-21t-21 1q-21 17 -31.5 47.5t-10.5 62.5 q0 30 10 55.5t32 35.5zM1 904l147 147l148 -147l-148 -148z" />
<glyph unicode="&#x646;" horiz-adv-x="712" arabic-form="medial" d="M447 59q-84 46 -100 85q-56 -42 -124.5 -75.5t-140.5 -57.5q-6 -2 -23 -5.5t-60 -5.5q-6 1 -12.5 12t-11.5 27t-8.5 35.5t-3.5 39.5q0 28 8 52t28 35q242 15 311 113q52 74 57 74q6 -14 9 -49q15 -27 39.5 -48.5t63.5 -38.5t96 -29.5t137 -21.5q14 -6 22.5 -36t8.5 -65 q0 -32 -7.5 -60.5t-23.5 -39.5q-43 0 -108 10.5t-142 41.5zM209 778l147 147l148 -147l-148 -148z" />
<glyph unicode="&#x647;" horiz-adv-x="634" arabic-form="isolated" d="M564 776q-2 -21 -11.5 -39t-29.5 -40t-53.5 -52.5t-84.5 -77.5v-16q109 -96 109 -242q0 -27 -4 -58t-12.5 -64t-22.5 -67t-35 -65q-61 -55 -147 -55q-38 0 -74 12t-64.5 34t-45.5 53.5t-17 70.5q0 78 51 192l49 111q-23 17 -42.5 33.5t-36.5 32.5q-11 10 -17 31.5 t-6 58.5q0 22 2 47.5t6 54.5l15 12q14 0 117 -66q97 -63 112 -63q11 0 60.5 41t125.5 105q37 31 45 31q4 0 6 -3zM424 248q-4 11 -16 29t-29 37.5t-37.5 39.5t-40 37t-37.5 28t-30 13q-15 -2 -30 -20t-27 -40.5t-19.5 -43.5t-7.5 -28q0 -10 10 -26q43 -69 139 -69 q64 0 119 28z" />
<glyph unicode="&#x647;" horiz-adv-x="779" arabic-form="final" d="M627 72q-22 22 -41 47.5t-33.5 48t-23.5 37.5t-10 17q-10 -31 -41 -90q-9 -12 -35.5 -22t-61 -18t-73 -12.5t-72.5 -4.5q-165 0 -166 78q0 4 10 36.5t33 94.5q36 102 143 180q45 33 207 117q15 13 29 145q4 48 13 48t15.5 -34.5t8.5 -91.5q1 -46 11.5 -97t28 -100.5 t40.5 -95t50.5 -79.5t58 -54.5t61.5 -20.5q19 -14 26 -39t7 -53q0 -19 -3 -38t-7.5 -34t-10.5 -25t-12 -12q-94 12 -152 72zM504 320q-5 46 -10.5 90t-11.5 89q-12 -10 -39.5 -28t-61 -39.5t-69.5 -45t-66 -43.5t-49 -35t-19 -20q0 -11 26 -17t61 -6q39 0 80.5 5t76 13.5 t57.5 18t25 18.5z" />
<glyph unicode="&#x647;" horiz-adv-x="675" arabic-form="initial" d="M0 201q14 -2 26.5 -3.5t24.5 -1.5q34 0 62 11q-3 24 -3 56q0 16 1.5 35t3.5 37t4 33.5t4 26.5q2 18 13.5 49.5t24.5 61.5t23 51t10 19q-1 10 -1.5 22t-0.5 26v24t1 34t3.5 30.5t6.5 13.5t10 -11q40 -83 135 -139l115 -68q128 -84 128 -228q0 -29 -10 -69t-23.5 -77.5 t-26.5 -65t-20 -31.5q-27 -15 -63 -25.5t-77 -17t-86.5 -9.5t-90.5 -3q-38 0 -71.5 2t-59.5 5t-42.5 6t-20.5 5q-8 2 -16 12.5t-15 27t-11.5 37t-4.5 43.5q0 26 10 47.5t37 33.5zM533 223q1 8 1 13.5v7.5q-1 11 -21 28t-46 33t-51.5 27.5t-36.5 11.5q-4 0 -16 -30t-12 -97 q0 -11 5.5 -14.5t28.5 -3.5q27 0 52.5 3t46 7t33.5 8t16 6zM311 292q0 9 -6.5 23t-18 27.5t-27.5 23t-36 9.5q-53 0 -53 -80q0 -49 14 -71.5t43 -22.5q15 1 30 10t27 22.5t19.5 29t7.5 29.5z" />
<glyph unicode="&#x647;" horiz-adv-x="705" arabic-form="medial" d="M556 -34q1 -6 -21 -150q-29 -173 -177 -174q-33 6 -64 23.5t-57.5 43t-47 56.5t-32.5 62q-17 36 -20 172q-35 -15 -65 -15q-131 0 -131 121q0 32 14 60t45 36q51 -23 86 -23q41 0 65 28q8 39 52 129l45 93q12 19 35.5 42t52.5 43l47 21q33 -2 58 -16.5t42 -39t26 -56.5 t9 -68q0 -61 -30 -130q60 -42 126 -42q46 0 91 19q9 -1 15 -9.5t10 -21t6 -28.5t2 -33q0 -41 -6 -65t-18.5 -36.5t-31.5 -16t-45 -3.5q-20 0 -41 2.5t-41 8.5zM431 222q9 10 9 23q0 17 -10 34t-24 30.5t-30.5 22t-28.5 8.5q-85 0 -141 -151l17 -18q126 8 208 51zM489 -108 q0 20 -6 53q-23 48 -158 48q-80 0 -102 -24l-2 -8q6 -23 25.5 -42.5t46 -33.5t57.5 -22t61 -8q12 0 25.5 1.5t25.5 5t19.5 10t7.5 15.5v5z" />
<glyph unicode="&#x648;" horiz-adv-x="597" arabic-form="isolated" d="M527 290q0 -195 -116 -335q-11 -14 -40 -26.5t-69.5 -21.5t-90 -15t-100.5 -6q-15 0 -24 0.5t-19 1.5t-24.5 2.5t-40.5 2.5l-2 9q12 18 254 122q218 93 229 164q-2 4 -4.5 9.5t-5.5 12.5l-16 7q-57 -23 -99 -23q-110 0 -110 141q0 25 5 56t13 59.5t18 50.5t21 29 q16 10 49 10q42 0 74.5 -21.5t54 -57t32.5 -80.5t11 -91z" />
<glyph unicode="&#x648;" horiz-adv-x="529" arabic-form="final" d="M438 -1q-31 -88 -65.5 -154.5t-82.5 -111.5t-114 -67.5t-160 -22.5q-6 0 -12.5 0.5t-13.5 0.5q-5 -1 -25.5 -4t-48.5 -3q-22 0 -26 7v11q1 7 236 130q226 119 236 182l-6 9q-25 5 -60 11.5t-81 14.5q-102 30 -102 162q0 30 7.5 63t19.5 61.5t28 48.5t34 25q12 3 30 3 q48 0 84.5 -21.5t62.5 -70.5q7 -23 28 -47l6 -22q23 -2 43 -3.5t39 -1.5q8 0 16.5 0.5t16.5 1.5q22 -5 32.5 -35t10.5 -65q0 -59 -20.5 -83.5t-67.5 -24.5q-10 0 -20.5 1t-24.5 5z" />
<glyph unicode="&#x649;" horiz-adv-x="1117" arabic-form="isolated" d="M1047 762q0 -131 -33 -131q-12 0 -31 18q-11 9 -17.5 14.5t-11.5 7.5t-9.5 2.5t-10.5 0.5q-27 0 -67.5 -17t-81 -42t-74 -54t-45.5 -53q-10 -21 -10 -37q0 -33 61 -39q49 -5 79.5 -9t41.5 -7q27 -8 42.5 -22.5t23.5 -33t10 -39.5t2 -40q0 -192 -207 -364 q-142 -119 -287 -119q-78 0 -141 30q-211 103 -211 391q0 106 41 244q53 176 131 182q8 -5 8 -18q0 -17 -8 -40t-22 -52l-39 -78q-20 -38 -28.5 -82.5t-8.5 -95.5q0 -165 123 -232q88 -49 178 -49q129 0 325 133q66 45 66 59v9l-102 18q-41 7 -69.5 16.5t-47.5 24.5 t-27.5 37t-8.5 54q0 75 12.5 133t27.5 87q48 95 160 193q122 107 204 107q32 0 47 -24.5t15 -82.5z" />
<glyph unicode="&#x649;" horiz-adv-x="988" arabic-form="final" d="M926 -5q-30 -2 -66.5 -8.5t-68 -15t-52.5 -18.5t-21 -19q0 -10 64 -10h15q91 0 117 -45q4 -5 4 -82q0 -180 -149 -341q-150 -163 -330 -163q-161 0 -281 162q-23 31 -37.5 59.5t-23 57.5t-11.5 58.5t-3 61.5q0 121 31 221.5t95 181.5q22 28 33 28q7 0 7 -6 q0 -21 -68 -148q-41 -75 -41 -157q0 -64 25 -123t67.5 -104t99.5 -72t121 -27q169 0 338 145q58 50 58 71q0 8 -22 13t-50.5 8.5t-54.5 6.5t-35 6q-23 9 -35 24t-13 41q-2 52 -3 76q-1 15 -2 25q-1 0 -1 -5q2 54 34 108.5t81 98.5t108.5 71.5t116.5 27.5q13 0 22.5 -8.5 t15 -22.5t8 -32t2.5 -37q0 -34 -8 -64t-23 -39q-11 -1 -26.5 -2t-37.5 -3z" />
<glyph unicode="&#x64a;" horiz-adv-x="1117" arabic-form="isolated" d="M1047 762q0 -131 -33 -131q-12 0 -31 18q-11 9 -17.5 14.5t-11.5 7.5t-9.5 2.5t-10.5 0.5q-27 0 -67.5 -17t-81 -42t-74 -54t-45.5 -53q-10 -21 -10 -37q0 -33 61 -39q49 -5 79.5 -9t41.5 -7q27 -8 42.5 -22.5t23.5 -33t10 -39.5t2 -40q0 -192 -207 -364 q-142 -119 -287 -119q-78 0 -141 30q-211 103 -211 391q0 106 41 244q53 176 131 182q8 -5 8 -18q0 -17 -8 -40t-22 -52l-39 -78q-20 -38 -28.5 -82.5t-8.5 -95.5q0 -165 123 -232q88 -49 178 -49q129 0 325 133q66 45 66 59v9l-102 18q-41 7 -69.5 16.5t-47.5 24.5 t-27.5 37t-8.5 54q0 75 12.5 133t27.5 87q48 95 160 193q122 107 204 107q32 0 47 -24.5t15 -82.5z" />
<glyph unicode="&#x64a;" horiz-adv-x="988" arabic-form="final" d="M926 -5q-30 -2 -66.5 -8.5t-68 -15t-52.5 -18.5t-21 -19q0 -10 64 -10h15q91 0 117 -45q4 -5 4 -82q0 -180 -149 -341q-150 -163 -330 -163q-161 0 -281 162q-23 31 -37.5 59.5t-23 57.5t-11.5 58.5t-3 61.5q0 121 31 221.5t95 181.5q22 28 33 28q7 0 7 -6 q0 -21 -68 -148q-41 -75 -41 -157q0 -64 25 -123t67.5 -104t99.5 -72t121 -27q169 0 338 145q58 50 58 71q0 8 -22 13t-50.5 8.5t-54.5 6.5t-35 6q-23 9 -35 24t-13 41q-2 52 -3 76q-1 15 -2 25q-1 0 -1 -5q2 54 34 108.5t81 98.5t108.5 71.5t116.5 27.5q13 0 22.5 -8.5 t15 -22.5t8 -32t2.5 -37q0 -34 -8 -64t-23 -39q-11 -1 -26.5 -2t-37.5 -3z" />
<glyph unicode="&#x64a;" horiz-adv-x="540" arabic-form="initial" d="M30 199q174 -14 367 74q30 35 4.5 105t-22.5 109q-1 19 10.5 56t34.5 94l8 -1l32 -97q26 -79 18 -168q-6 -68 -32 -148q-74 -226 -450 -223q-20 17 -29.5 47t-9 61t10.5 57t28 36zM463 -230l-147 -150l-138 131l-127 -129l-145 146l145 149l134 -133l131 131z" />
<glyph unicode="&#x64a;" horiz-adv-x="712" arabic-form="medial" d="M447 59q-84 46 -100 85q-56 -42 -124.5 -75.5t-140.5 -57.5q-6 -2 -23 -5.5t-60 -5.5q-6 1 -12.5 12t-11.5 27t-8.5 35.5t-3.5 39.5q0 28 8 52t28 35q242 15 311 113q52 74 57 74q6 -14 9 -49q15 -27 39.5 -48.5t63.5 -38.5t96 -29.5t137 -21.5q14 -6 22.5 -36t8.5 -65 q0 -32 -7.5 -60.5t-23.5 -39.5q-43 0 -108 10.5t-142 41.5zM608 -227l-147 -150l-138 131l-127 -129l-145 146l145 149l134 -133l131 131z" />
<glyph />
<glyph />
<glyph unicode="&#xd;" horiz-adv-x="508" />
<glyph unicode=" "  horiz-adv-x="120" />
<glyph unicode="&#x09;" horiz-adv-x="120" />
<glyph unicode="&#xa0;" horiz-adv-x="120" />
<glyph unicode="!" horiz-adv-x="672" d="M313 328l-49 1036q0 46 21 69t62 23q42 0 62.5 -23t20.5 -69l-80 -1036h-37zM223 167l82 84q15 14 29 14q13 0 31 -16l80 -86q12 -16 12 -29q0 -15 -14 -31l-80 -88q-20 -20 -29 -20q-16 0 -29 14l-88 101q-10 13 -10 26q0 15 16 31z" />
<glyph unicode="&#x22;" horiz-adv-x="672" d="M197 1108h-30l-62 359q-4 23 -4 33q0 37 20.5 57t59.5 20t60.5 -19.5t21.5 -56.5q0 -8 -4 -34zM509 1108h-30l-62 359q-4 23 -4 33q0 37 20.5 57t59.5 20t60.5 -19.5t21.5 -56.5q0 -8 -4 -34z" />
<glyph unicode="(" horiz-adv-x="953" d="M312 283q5 -109 15 -192t28 -142q27 -88 72 -168t105.5 -149.5t135.5 -127t162 -100.5q-154 12 -292.5 77.5t-244.5 171.5q-53 53 -93.5 111.5t-69 132t-46 167.5t-24.5 219q7 125 24.5 221.5t46.5 166.5q44 105 116 192t163 151t198 103t222 48q-87 -43 -162 -100.5 t-135.5 -127t-105.5 -149t-72 -167.5q-18 -58 -28.5 -141.5t-14.5 -192.5v-4v0z" />
<glyph unicode=")" horiz-adv-x="1015" d="M641 291q-9 215 -44 334q-27 88 -71.5 168t-104.5 149t-135.5 126.5t-163.5 100.5q155 -12 292.5 -77.5t243.5 -171.5q53 -53 94 -111.5t70 -132t46.5 -168.5t23.5 -221q-12 -244 -71 -385q-44 -104 -115.5 -191t-163 -151.5t-198.5 -103.5t-222 -48q177 86 299 227 t176 318q35 119 44 334v4v0z" />
<glyph unicode="0" horiz-adv-x="411" d="M58 482q12 16 32 40.5t40 47.5t36.5 40t19.5 17q6 0 13 -7q45 -36 86.5 -68.5t69.5 -61.5q5 -7 5 -10q0 -4 -7 -14q-26 -37 -54 -71t-55 -70q-7 -13 -18 -13q-9 0 -25 10.5t-35.5 26t-40 34t-37 35.5t-27 30t-10.5 16q0 5 2 9t5 9z" />
<glyph unicode="1" horiz-adv-x="281" d="M50 684q0 3 2 17t6 33t8.5 40t10.5 39t12 30t12 12q7 0 19.5 -22t27 -60t29 -90t26.5 -112.5t19.5 -127t7.5 -133.5q0 -38 -3.5 -88.5t-9.5 -96t-14 -77t-17 -31.5q-6 0 -9 22t-4 52.5t-1.5 64t-1.5 56.5q-6 43 -16 112t-28 144q-17 58 -37 109.5t-39 106.5z" />
<glyph unicode="2" horiz-adv-x="536" d="M216 35q-4 -17 -10.5 -33t-11.5 -16q-7 0 -7 32q-2 103 -13.5 200.5t-32.5 199.5q-10 42 -25.5 87t-30 84.5t-25 68t-10.5 37.5t1 10q5 19 11 47t12.5 54.5t14.5 45t17 18.5q5 -1 7.5 -4t5.5 -8t7.5 -13t14.5 -20q13 -20 28.5 -32t34.5 -19t42 -10t51 -5q39 3 65.5 11.5 t46 23t34 34.5t28.5 46q6 2 7 2q8 0 8 -13q0 -6 -3.5 -24t-8.5 -36.5t-9.5 -33t-6.5 -14.5v1q-35 -90 -93.5 -135.5t-151.5 -50.5q5 -39 10 -71.5t8.5 -63.5t5.5 -62.5t2 -70.5v-71.5t-2 -65t-6.5 -63t-14.5 -67.5z" />
<glyph unicode="3" horiz-adv-x="859" d="M212 41q-7 -19 -12 -19q-4 0 -4 5q0 15 0.5 29.5t0.5 29.5q0 88 -6.5 177.5t-23 177.5t-44 172.5t-70.5 161.5q-1 5 -1.5 9t-0.5 9q0 27 7.5 59.5t18 60.5t20.5 47t15 19q11 0 30 -30q16 -26 29.5 -54t31 -51t41 -38t59.5 -15q21 0 43 7t42.5 18.5t37.5 26.5t28 31 q14 21 22.5 37.5t14.5 28t10.5 17.5t12.5 6q5 0 8 -7t5 -17t4 -19.5t7 -15.5q20 -26 42.5 -37.5t53.5 -11.5q27 0 48 4.5t38 15t30.5 28t27.5 42.5q8 14 15 26t12 12q4 0 4 -14q-2 -23 -9.5 -55t-21.5 -67t-34.5 -69.5t-47.5 -62t-61.5 -44.5t-76.5 -17q-41 0 -74 19.5 t-50 54.5q-1 1 -3 1q-3 0 -4 -1q-17 -29 -34.5 -51t-37 -38.5t-43.5 -29t-55 -21.5q-5 -1 -5 -8v-3q5 -49 11 -99.5t6 -101.5q-3 -62 -7 -102.5t-9.5 -72t-13 -61t-17.5 -68.5q-1 0 -3 -4.5t-3.5 -10t-2.5 -10.5t-1 -6z" />
<glyph unicode="4" horiz-adv-x="778" d="M95 -19v29q0 118 -14 228.5t-31 224.5q1 0 0.5 34t3.5 85.5t15 111t35 111t64 85.5t102 34q39 0 74 -18t64 -46t52.5 -62t39.5 -65l196 230q3 3 9 7t14 4t8 -5q0 -4 -3.5 -13.5t-13.5 -31t-28 -58.5t-46 -97q-29 -34 -58.5 -69.5t-57 -73t-51 -77.5t-39.5 -83 q-4 -6 -7.5 -11t-8.5 -5q-3 0 -6 5q0 36 -1.5 58.5t-3 36t-3.5 20.5t-3 10q-12 29 -31.5 54.5t-43.5 44.5t-52 30t-57 11q-9 0 -25 -3t-31.5 -9t-27.5 -15.5t-12 -23.5q0 -6 0.5 -13t2.5 -12q22 -108 32 -208.5t10 -209.5q-1 -19 -3.5 -46t-6.5 -56.5t-9 -58t-11.5 -51.5 t-13 -37t-13.5 -14q-6 0 -8 8t-2 10z" />
<glyph unicode="5" horiz-adv-x="795" d="M160 323q0 -26 5.5 -50t18 -43.5t33 -31t50.5 -11.5q31 0 53.5 11.5t39 29.5t28.5 38.5t21 39t17 31t17 14.5q6 0 6 -5q1 -20 3 -42.5t12.5 -42t33.5 -33t66 -15.5q7 0 23 2.5t32.5 7.5t28.5 12.5t12 16.5q0 23 -13 53.5t-31 61t-36.5 57.5t-28.5 42q-10 11 -29.5 35.5 t-44.5 54.5t-53 62.5t-55 60.5q-2 1 -2.5 2t-2.5 1q-3 0 -9 -6t-20 -24.5t-37 -54t-59 -93.5q-13 -17 -27 -39t-25.5 -47t-19 -49.5t-7.5 -45.5zM50 154q1 42 13.5 87t30.5 88t38.5 82.5t38.5 71.5q7 10 22 34t37 56.5t49 71t57 77.5q3 19 7.5 51.5t11 64t14 54.5t15.5 23 q10 0 35 -24.5t61 -69t82.5 -107t101.5 -137.5q15 -26 29 -52.5t25.5 -54t18.5 -56.5t7 -60v-8q-4 -20 -10.5 -53t-17.5 -71.5t-27.5 -77.5t-41.5 -70.5t-59.5 -51.5t-81.5 -20q-31 0 -61.5 16t-51.5 41q-2 3 -5.5 9t-8 12.5t-8.5 12t-6 6.5q-14 -20 -30.5 -40.5t-36 -37 t-42.5 -26.5t-50 -10q-33 0 -61.5 14t-49.5 37.5t-33 54t-12 63.5z" />
<glyph unicode="6" horiz-adv-x="542" d="M364 111q0 37 1 81t2.5 91t2.5 94.5t1 90.5v28t-0.5 34.5t-1.5 29t-2 12.5t-1 -1q-29 -17 -61 -25t-65 -8q-36 0 -70 10t-60 31t-42.5 52t-17.5 73q0 18 5 49t12.5 60t16 50.5t15.5 21.5q6 0 8 -5.5t4.5 -16.5t7.5 -27t16 -37q28 -36 69 -54.5t86 -18.5q39 0 67 12.5 t48.5 34.5t36.5 51t32 61q9 14 13 14q5 0 5 -24q-2 -15 -3.5 -26t-3 -23l-3.5 -28t-5 -42q-5 -125 -9.5 -213t-8.5 -147.5t-7 -95.5t-6 -55.5t-5 -26.5t-3 -11q-6 -15 -20 -60t-37 -115q-1 -3 -3 -10t-5.5 -14.5t-9 -13.5t-12.5 -8q0 14 4.5 42.5t8.5 82.5z" />
<glyph unicode="7" horiz-adv-x="673" d="M53 278q1 11 11.5 34t24.5 47.5t27.5 47.5t21.5 34q4 8 14 20t10 14l144 145q67 61 120.5 112t93.5 90q5 4 11 4q7 0 7.5 -3t0.5 -2q0 -7 -5.5 -19.5t-13.5 -26.5t-17 -28.5t-16 -26.5q-12 -21 -23.5 -38t-15.5 -19l-249 -238q-2 -1 -2 -3q0 -3 9 -10t22.5 -16.5 t29.5 -20t31 -19t26 -14.5t14 -7q22 -15 52 -31t63 -32t65 -31t57.5 -28t41 -24t15.5 -18q0 -1 -3 -5.5t-13.5 -20t-30.5 -44.5t-54 -80q-3 -4 -12 -4q-31 0 -131 49.5t-279 162.5q-5 3 -13.5 8.5t-16 12t-13 13t-5.5 11.5q0 3 1 4z" />
<glyph unicode="8" horiz-adv-x="761" d="M620 -6q-2 -4 -4 -4t-5 8.5t-6.5 20t-6.5 23t-6 18.5q-54 142 -112.5 275t-118.5 270q-54 -115 -104 -225.5t-104 -225.5q-2 -8 -11.5 -21t-22.5 -28t-27.5 -29.5t-27.5 -26.5q-2 -2 -4.5 -4t-4.5 -2q-4 0 -4 7t4 19.5t9 25.5t10 24t7 15q15 31 32.5 71.5t36.5 82 t38.5 81.5t36.5 71q48 97 83 172.5t60.5 127t42.5 78t28 26.5q6 0 8 -3t4 -9q23 -68 52.5 -139.5t62 -145t66 -148t65.5 -148.5q8 -18 10.5 -39.5t3.5 -40.5q-23 -45 -45.5 -88.5t-45.5 -88.5z" />
<glyph unicode="9" horiz-adv-x="512" d="M150 640q24 -42 68.5 -56.5t100.5 -14.5q17 0 33.5 2t31.5 9q-8 60 -37.5 100t-81.5 40q-13 0 -31.5 -5.5t-36 -15.5t-31 -25t-16.5 -34zM422 175q-3 -10 -9.5 -30.5t-14.5 -45.5t-17 -51.5t-17 -48t-14.5 -35t-10.5 -13.5q-2 2 -2.5 5.5t-0.5 12.5q0 11 1.5 33t4.5 59.5 t7.5 94t11.5 136.5v117l-1 1q-2 0 -2.5 -0.5t-2.5 -0.5q-31 -8 -59.5 -15t-60.5 -7q-34 0 -67 10t-59.5 29t-42.5 47.5t-16 66.5q0 23 5.5 49t14 52.5t19 52.5t19.5 49q13 31 32 62.5t44 56t55.5 40t66.5 15.5t64.5 -18t49 -45.5t31.5 -62t11 -67.5v-158 q-9 -123 -19.5 -216.5t-20.5 -174.5z" />
<glyph unicode="&#x603;" d="M823 1512q-19 0 -41.5 -9.5t-42.5 -24.5t-36.5 -33.5t-23.5 -35.5h35q23 0 47 -0.5t48 -0.5q59 0 116 23q-14 31 -40 56t-62 25zM7 1362q58 1 121 0.5t125.5 4t122.5 17.5t112 42q11 5 19.5 15t15.5 20t13.5 17.5t14.5 7.5q4 0 11.5 -10.5t19 -22.5t25.5 -22.5t31 -10.5 h9q2 4 9.5 14t16 21.5t17 21t12.5 14.5q13 14 30 33t36.5 36t41.5 28.5t44 11.5q25 0 50 -11t44.5 -29.5t31.5 -42.5t12 -49q0 -5 -0.5 -10t-1.5 -10q-12 -29 -21.5 -48.5t-20 -32.5t-25 -21t-36.5 -14q-50 -10 -86.5 -14t-73.5 -4q-31 0 -63 2.5t-60.5 12t-51.5 28.5 t-36 52q-18 -36 -42 -57.5t-53 -33t-63 -15t-71 -3.5q-72 0 -144 12.5t-136 49.5z" />
<glyph unicode="&#x60c;" horiz-adv-x="423" d="M282 128q0 -22 -8 -41t-22.5 -32.5t-33.5 -21.5t-40 -8q-36 0 -66.5 18.5t-52.5 50.5t-34.5 76t-12.5 95q0 99 43.5 182.5t130.5 149.5l24 -33q-37 -40 -62 -72.5t-40.5 -63t-22 -61t-6.5 -65.5q0 -7 0.5 -19t3 -25.5t8 -26.5t15.5 -21l32 15q19 9 42 9q22 0 40.5 -9 t32 -24t21.5 -34t8 -39z" />
<glyph unicode="&#x610;" d="M97 1314q-9 -2 -15.5 -2h-11.5q-9 0 -9 2v13q0 4 0.5 23t1.5 41.5t1.5 42t0.5 25.5q0 34 -3.5 63.5t-10 59.5t-17 62.5t-25.5 72.5l-6 12t-2 10q0 5 1.5 14t7.5 35q12 55 20 55q2 0 7 -8.5t14 -22t21.5 -31.5t30.5 -37q6 -6 17 -14t25.5 -14.5t32 -11t35.5 -4.5 q36 0 47 31q11 32 26.5 58.5t33.5 49.5q9 12 22 25t29 23.5t35.5 17.5t40.5 7q28 0 55.5 -12t49 -32.5t35 -47t14.5 -55.5q0 -38 -15.5 -73t-54.5 -61.5t-105 -42.5t-167 -16h-54q-30 0 -42 -2.5t-16 -14.5t-4.5 -37t-7.5 -70q-6 -39 -15 -75.5t-23 -58.5zM339 1710 q4 -8 9 -12t19 -4q25 0 48 4t39.5 10.5t26.5 15t10 17.5q0 7 -4.5 18t-13.5 21t-22.5 17t-31.5 7q-12 0 -26 -8t-26.5 -21t-20.5 -29t-8 -31q0 -4 1 -5z" />
<glyph unicode="&#x611;" d="M0 1427q0 12 1.5 33t10 45t26.5 48t50 42q23 13 43 18t38 5q27 -2 50.5 -13.5t41 -30.5t27.5 -43.5t10 -52.5q0 -29 -12 -80l-2 -1q0 -2 26 -2q14 0 33.5 0.5t46.5 1.5q118 3 324 65l87 22l19 -13q-47 -41 -77 -64t-55.5 -36.5t-52 -21.5t-65.5 -19q-36 -10 -73.5 -16.5 t-74.5 -10t-72.5 -4.5t-65.5 -1q-38 0 -82.5 2.5t-85.5 15.5t-72.5 38.5t-43.5 72.5zM94 1495q-2 -5 -2 -9v-8q0 -29 16.5 -48t48.5 -19q17 0 36 4q12 14 17 27t5 24q0 16 -8.5 27.5t-20.5 19t-24.5 10.5t-19.5 3q-15 0 -25.5 -8.5t-22.5 -22.5z" />
<glyph unicode="&#x612;" d="M597 1389l-4 -4q-6 3 -6 10q0 3 -0.5 3t1 4.5t7.5 17t20 41.5q-4 3 -7.5 6t-6.5 6l-16 16q-26 -31 -52 -43t-48 -12q-45 0 -81 37q-4 4 -6 4q-47 -19 -153 -37q-95 -2 -95 -4h3q-66 5 -108 39t-42 88q0 16 4.5 35.5t12 36.5t17 29t19.5 12q4 -1 6 -5v-4q-7 -11 -17 -27 t-10 -38q0 -51 37 -77t126 -26q30 0 50.5 2t38 6t35 9t43.5 10l5 4q-2 5 -5 12t-3 18q0 13 7.5 32.5t19.5 37.5t27 30.5t30 12.5q2 0 9.5 -4.5t16 -13.5t15 -23t6.5 -33q0 -32 -10 -56t-15 -29l-8 -4q0 -13 37 -13q31 0 57.5 19.5t46.5 48.5q5 -22 19 -34t23 -12q5 0 7 1 l111 117q22 18 55 18q12 0 27 -8t28 -20t22 -27t9 -28q0 -21 -22 -68q0 -3 7.5 -3h13.5q27 0 47 4.5t35 12.5t26.5 20.5t23.5 28.5h4q6 -5 6 -10q0 -4 -1 -8.5t-1 -6.5q2 -17 26 -29.5t49 -12.5q7 0 16.5 1.5t18.5 5t15 10t6 17.5q0 7 -0.5 16.5t-1.5 22.5q1 6 1.5 15 t0.5 22q-3 9 -3 18q0 2 0.5 5t0.5 6q0 13 -3 41.5t-7 61t-7 64t-3 49.5v11q-5 12 -10 47q5 42 43 94l8 -2v-3q0 -4 -2 -10l-4 -12t-4 -11.5t-2 -8.5q0 -5 4 -13l8.5 -17t9 -16t4.5 -9q1 -2 1 -7q0 -11 -9 -26l-14 -20l14 -150q2 -14 3 -27.5t1 -27.5v-78q0 -3 -0.5 -7 t-1.5 -9v-15q0 -37 -31 -80q-37 -19 -69 -19q-24 0 -45.5 10t-32.5 38q-27 -20 -68.5 -36t-89.5 -16q-23 0 -48.5 4.5t-39.5 18.5q-68 -13 -96 -13q-9 0 -16 1.5t-21 5.5q-8 -5 -45 -61zM1258 1479l-2 2q-2 10 -2 20q0 17 3 41t3 56l-2 36t-2.5 47.5t-4.5 75t-7 117.5 q-1 8 -1 14.5v14.5q0 10 0.5 26.5t2 33t5 30t9.5 18.5q3 -1 5 -5t4 -25t4.5 -65.5t7.5 -125.5q6 -101 6 -209q0 -3 -2.5 -18.5t-6 -33t-7 -32t-4.5 -15.5q-5 -3 -9 -3zM689 1508q4 -4 19 -4q9 0 21.5 1t29.5 5t39.5 11.5t52.5 21.5q6 1 6 4v2q-24 39 -57 39 q-21 0 -53.5 -19.5t-57.5 -60.5zM462 1569q-11 33 -29 33q-28 0 -35 -33q3 -5 7.5 -11.5t9.5 -14.5h4q19 6 41 20zM441 1823l51 -39q3 -2 3 -4q-3 -2 -9 -12l-30 -43q-1 -1 -2 -1q-2 0 -2 1l-54 39q-3 1 -3 2l1 2l39 53q1 2 3 2h3zM1017 1753l53 -38q2 -4 2 -5q-3 -3 -8 -12 l-31 -43q-1 -1 -2 -1q-3 0 -4 1l-51 39q-3 1 -3 2l1 2l39 53q1 2 2 2h2z" />
<glyph unicode="&#x613;" d="M1427 1492v-8q0 -15 -5 -40.5t-12 -50t-14.5 -42.5t-13.5 -18l-4 2q-1 5 -1 12v15q0 9 1.5 26t3 35.5t3 35.5t1.5 26q0 18 -1.5 49.5t-3.5 70t-5 80t-5 80t-3.5 70t-1.5 49.5q0 134 26 163q10 0 18 -147zM1122 1743q-5 -8 -18.5 -26.5t-36.5 -48.5l-7 -2l-76 55l-2 7 q14 19 29 38t29 39q2 -1 22 -15t59 -41zM1197 1615l-54 -73l-9 -2l-76 54l-1 6l-44 -60l-8 -2l-76 54l-2 4q1 4 9.5 16t19 25.5t19.5 25t11 14.5q2 -1 21.5 -15t57.5 -41l2 -6l45 60h7l76 -52zM599 1893l-3 17q3 13 3 29q0 5 -1.5 17.5t-3 26.5t-2.5 26.5t-1 17.5 q0 25 22 70l4 -4l-2 -23q0 -3 -0.5 -6t-0.5 -7q0 -8 1 -19t2.5 -22t2.5 -20t1 -13q0 -75 -22 -90zM1306 1476q0 -92 -34.5 -135t-105.5 -43q-18 0 -29 1.5t-20 9t-19.5 23.5t-28.5 45q-33 -77 -147 -77q-174 0 -210 142l-5 13q-2 3 -3 3q-8 0 -9 -10.5t-5 -27t-15.5 -35.5 t-39.5 -35q-44 -26 -80 -26q-61 0 -80 42q-2 0 -7 -5q-31 -34 -90 -49q-8 2 -34 2q-92 0 -109 116h-4q-8 -27 -13 -41t-11 -21t-14.5 -8t-23.5 -1q-23 0 -51 5t-52.5 14t-41 20.5t-16.5 23.5q0 8 2.5 22.5t6.5 29t9 26.5t9 16q19 17 57.5 46t98.5 69q-4 26 -5.5 44t-1.5 28 q0 4 1 13t2.5 19.5t2.5 19.5t1 13l6 7l10 -4q9 -30 16.5 -62t15 -68t17 -78t22.5 -91q30 -64 88 -64q47 0 73 18l51 48q33 -54 63 -54q12 0 30.5 5.5t37 14t33.5 17.5t20 17q3 7 3 48q0 16 -2.5 45.5t-6 65t-8 74.5t-8 74.5t-6 65t-2.5 46.5q0 7 3.5 21l7.5 30l7.5 30 t3.5 21l-2 3q10 7 19 30h3q22 -85 22 -132q0 -5 -0.5 -10t-1.5 -10v2q6 -12 6 -21l25 -234q15 -137 47 -175q45 -52 185 -52q74 0 110 89l13 3q16 -32 26.5 -50.5t20 -27.5t20 -11.5t25.5 -2.5q34 0 75 26q5 5 5 33q0 25 -9.5 127t-28.5 285l-12 61q0 10 5 29.5t12.5 40 t16 37.5t14.5 22q11 0 11 -15q0 -4 -1 -11.5t-2.5 -15.5t-2.5 -15.5t-1 -11.5t5.5 -17.5t12.5 -29t12.5 -29t5.5 -18.5q0 -6 -4 -17t-9.5 -24t-9.5 -24t-4 -17q0 -14 3 -39.5t7 -52t7.5 -49t4.5 -29.5q4 -60 6.5 -101t2.5 -65zM523 1817q-3 -4 -17 -23t-40 -53l-7 -1l-74 55 l-2 7l54 74h8l76 -53zM596 1689l-55 -74l-7 -1l-75 54l-2 5l-43 -59l-7 -2l-78 54l-2 7l56 74h9l74 -52l2 -6l44 58l7 2l77 -52v-8zM295 1923l-55 -74l-7 -2l-74 55l-2 6l-44 -61l-7 -1l-76 54l-2 8l56 73h7l75 -53l2 -5l43 60h8l76 -53v-7zM224 1487q0 47 -25 103 q-123 -68 -139 -92q19 -39 116 -39q48 0 48 28z" />
<glyph unicode="&#x614;" d="M640 1435q1 0 2.5 -1t3.5 -1q16 0 23.5 11t12 24.5t9 25t14.5 11.5t17 -9.5t11 -22.5t6 -26t2 -20q0 -28 -11 -51.5t-28.5 -40t-40 -26t-45.5 -9.5q-35 0 -67 23t-49 77q-25 -10 -58 -17.5t-69.5 -12.5t-76 -7.5t-76.5 -2.5q-42 0 -80 3t-67.5 9t-48 15t-21.5 20 q48 23 101.5 27.5t113.5 4.5h19q42 0 83 1.5t81 9.5q22 4 38.5 11t31 15.5t29.5 17.5t34 17l14 7t14 3q16 0 23.5 -13.5t13.5 -29.5t14.5 -29.5t26.5 -13.5z" />
<glyph unicode="&#x615;" d="M136 1792l10 -40q6 -10 10.5 -20.5t4.5 -21.5t-6 -21q9 -134 20 -170q62 44 113 44q44 0 70.5 -10t40.5 -23.5t18 -26t4 -17.5q0 -22 -7 -47t-20 -47.5t-31 -40.5t-40 -27q-45 -8 -83.5 -12t-70.5 -4q-24 0 -52.5 3.5t-53 8.5t-41.5 12t-17 15q0 7 6.5 10t19 5.5t31 5.5 t42.5 9q2 30 9.5 51.5t7.5 30.5q0 52 -27 232q0 18 1.5 40.5t5 43t10 34t15.5 13.5q1 0 1.5 -0.5t1.5 -0.5zM293 1463q-6 1 -11.5 1h-11.5q-31 0 -57.5 -6.5t-50.5 -32.5q-14 -16 -20 -25.5t-6 -17.5q61 7 103 11.5t67.5 9.5t36.5 10.5t11 14.5q0 10 -17 19t-44 16z" />
<glyph unicode="&#x61b;" horiz-adv-x="413" d="M373 155l-120 -155l-213 153l119 165zM314 539q0 -22 -8 -41t-22.5 -32.5t-33.5 -21.5t-40 -8q-36 0 -66.5 18.5t-52.5 50.5t-34.5 76t-12.5 95q0 99 43.5 182.5t130.5 149.5l24 -33q-37 -40 -62 -72.5t-40.5 -63t-22 -61t-6.5 -65.5q0 -7 0.5 -19t3 -25.5t8 -26.5 t15.5 -21l32 15q19 9 42 9q22 0 40.5 -9t32 -24t21.5 -34t8 -39z" />
<glyph unicode="&#x61f;" horiz-adv-x="776" d="M736 1093v-50q0 -15 -3 -22l-14 -73q-14 -87 -49 -144l-14 68q-4 29 -27 61.5t-69 64t-117 60t-171 49.5q-22 0 -56 -75l-18 -63l-5 -48q12 -38 72 -68l85 -37l90 -28l64 -26q156 -80 156 -166q0 -42 -12.5 -98.5t-29 -109.5t-31.5 -93t-21 -50l87 -73l-173 -221 q-1 2 -13.5 12.5t-32.5 26.5t-44.5 35.5t-49 38t-46.5 34t-37 24.5l157 224l80 -65q10 8 19.5 20.5t17.5 30.5l13 31l11 36q0 15 -17 35t-45.5 39.5t-66.5 37.5t-81 29q-76 20 -124 32.5t-68 22.5q-113 42 -113 108q0 172 96 420t174 248q62 0 235 -93q191 -102 191 -185z " />
<glyph unicode="&#x621;" horiz-adv-x="769" d="M686 475q3 -8 3 -17q0 -31 -33 -83q-16 -26 -168 -115q-20 -12 -32 -18.5t-22 -12t-20 -11.5t-25.5 -15t-39.5 -23.5t-61 -37.5t-90 -56t-128 -80q4 33 7.5 55.5t9 38.5t14.5 28t26 24l164 124q-63 85 -63 181q0 37 14.5 68t40 53t60.5 34.5t77 12.5q48 0 88 -15.5 t70 -50.5q-3 -26 -22 -26q-3 0 -11 2q-36 10 -78 10q-145 0 -149 -84q22 -94 94 -94q37 0 145 47q28 15 60 30t69 31z" />
<glyph unicode="&#x622;" horiz-adv-x="563" d="M378 884q-11 -35 -51 -47q0 -21 3 -55t7.5 -74.5t10 -84t10.5 -83t8.5 -71.5t3.5 -50v-33q0 -45 -1.5 -93t-6.5 -101q-18 -100 -37 -151.5t-39 -51.5q-3 0 -4 3q6 37 6 93q0 186 -17.5 368.5t-50.5 367.5q-4 19 -4 50q0 35 4 71.5t10 66t14 48.5t16 19q17 0 32 -65 q40 -87 86 -127zM62 1099h-2q-3 3 -4.5 15.5t-3 26t-2.5 24.5t-2 13q-8 14 -29 43.5t-56 68.5q2 0 19 56q2 11 14 25q10 -9 39.5 -29t63.5 -40.5t64 -36t42 -15.5q91 0 95 2q48 8 76.5 13t36.5 7q31 7 52 14.5t37.5 18t31 25t32.5 37.5h9q2 -6 2 -8q0 -8 -3.5 -20.5 t-11 -27.5t-20.5 -32t-31 -33q-96 -85 -305 -85q-11 0 -21 1.5t-21.5 4t-26.5 5.5t-35 6q-2 0 -7.5 -12t-12 -27t-12.5 -27.5t-8 -12.5z" />
</font>
</defs>
</svg>
